Actualmente tenemos 4572 para descargar peliculas gratis 1080p latino

Titanic (1997) 1080p FULL HD Latino

Jack (DiCaprio), un joven artista, gana en una partida de cartas un pasaje para viajar a América en el Titanic, el transatlántico más grande y seguro jamás construido. A bordo conoce a Rose (Kate Winslet), una joven de una buena familia venida a menos que va a contraer un matrimonio de conveniencia con Cal (Billy Zane), un millonario engreído a quien sólo interesa el prestigioso apellido de su prometida. Jack y Rose se enamoran, pero el prometido y la madre de ella ponen todo tipo de trabas a su relación. Mientras, el gigantesco y lujoso transatlántico se aproxima hacia un inmenso iceberg.



Titulo Original Titanic
Año 1997
Duracion 195 min.
Guion
Director James Cameron
Musica James Horner
Photografia Russell Carpenter
Reparto Leonardo DiCaprio, Kate Winslet, Billy Zane, Kathy Bates, Frances Fisher, Gloria Stuart, Bill Paxton, Bernard Hill, David Warner, Victor Garber, Jonathan Hyde, Suzy Amis, Danny Nucci, Jason Barry, Ewan Stewart, Ioan Gruffudd
Productora Leonardo DiCaprio, Kate Winslet, Billy Zane, Kathy Bates, Frances Fisher, Gloria Stuart, Bill Paxton, Bernard Hill, David Warner, Victor Garber, Jonathan Hyde, Suzy Amis, Danny Nucci, Jason Barry, Ewan Stewart, Ioan Gruffudd
Genero
Titulo original Titanic (1997) 1080p FULL HD Latino
Titulo Latino Titanic (1997) 1080p FULL HD Latino
Otros Titulos Titanic (1997) 1080p FULL HD Latino
Audio Español Latino [AC3 5.1 BD] - Ingles [DTS 5.1 BD]
Calidad: FULL HD 1080p Resolucion: 1920x1080p Formato: MKV
Codec: H.264 Encoder: ADDKiQ Peso: 14.3 GB
Subtitulos: Español Latino [SRT.PGS] - Ingles [PGS] Duracion: 195 min. Capitulos:
  • No hay video embed hola

General
Complete name : P:\Titanic.addkiqe.cinemaniahdd.com\Titanic.1997.addkiqe.cinemaniahdd.com.mkv
Format : Matroska
Format version : Version 2
File size : 14.3 GiB
Duration : 3h 14mn
Overall bit rate : 10.5 Mbps
Encoded date : UTC 2016-04-15T00:26:05Z
Writing application : HandBrake 0.10.5 2016021100
Writing library : Lavf55.12.0 / Lavf55.12.0

Video
ID : 1
Format : AVC
Format/Info : Advanced Video Codec
Format profile : High@L4.1
Format settings, CABAC : Yes
Format settings, ReFrames : 4 frames
Codec ID : V_MPEG4/ISO/AVC
Bit rate : 8 137 Kbps
Width : 1 920 pixels
Height : 1 080 pixels
Display aspect ratio : 16:9
Frame rate mode : Variable
Color space : YUV
Chroma subsampling : 4:2:0
Bit depth : 8 bits
Scan type : Progressive
Writing library : x264 core 142 r2479 dd79a61
Encoding settings : cabac=1 / ref=4 / deblock=1:0:0 / analyse=0x3:0x133 / me=tesa / subme=11 / psy=1 / psy_rd=1.00:0.00 / mixed_ref=1 / me_range=24 / chroma_me=1 / trellis=2 / 8x8dct=1 / cqm=0 / deadzone=21,11 / fast_pskip=0 / chroma_qp_offset=-2 / threads=36 / lookahead_threads=8 / sliced_threads=0 / nr=0 / decimate=1 / interlaced=0 / bluray_compat=0 / constrained_intra=0 / bframes=16 / b_pyramid=2 / b_adapt=2 / b_bias=0 / direct=3 / weightb=1 / open_gop=0 / weightp=2 / keyint=240 / keyint_min=24 / scenecut=40 / intra_refresh=0 / rc_lookahead=60 / rc=crf / mbtree=1 / crf=20.0 / qcomp=0.60 / qpmin=0 / qpmax=69 / qpstep=4 / vbv_maxrate=62500 / vbv_bufsize=78125 / crf_max=0.0 / nal_hrd=none / filler=0 / ip_ratio=1.40 / aq=1:1.00
Default : Yes
Forced : No
Color range : Limited
Color primaries : BT.709
Transfer characteristics : BT.709
Matrix coefficients : BT.709

Audio #1
ID : 2
Format : AC-3
Format/Info : Audio Coding 3
Mode extension : CM (complete main)
Format settings, Endianness : Big
Codec ID : A_AC3
Duration : 3h 14mn
Bit rate mode : Constant
Bit rate : 640 Kbps
Channel(s) : 6 channels
Channel positions : Front: L C R, Side: L R, LFE
Sampling rate : 48.0 KHz
Frame rate : 31.250 fps (1536 spf)
Compression mode : Lossy
Stream size : 892 MiB (6%)
Title : Surround
Language : Spanish
Default : Yes
Forced : No

Audio #2
ID : 3
Format : DTS
Format/Info : Digital Theater Systems
Mode : 16
Format settings, Endianness : Big
Codec ID : A_DTS
Duration : 3h 14mn
Bit rate mode : Constant
Bit rate : 1 509 Kbps
Channel(s) : 6 channels
Channel positions : Front: L C R, Side: L R, LFE
Sampling rate : 48.0 KHz
Frame rate : 93.750 fps (512 spf)
Bit depth : 24 bits
Compression mode : Lossy
Stream size : 2.05 GiB (14%)
Title : Surround
Language : English
Default : No
Forced : No

Text #1
ID : 4
Format : PGS
Codec ID : S_HDMV/PGS
Codec ID/Info : Picture based subtitle format used on BDs/HD-DVDs
Language : Spanish
Default : No
Forced : No

Text #2
ID : 5
Format : PGS
Codec ID : S_HDMV/PGS
Codec ID/Info : Picture based subtitle format used on BDs/HD-DVDs
Language : English
Default : No
Forced : No

Menu
00:00:00.000 : :Chapter 1
00:01:24.493 : :Chapter 2
00:04:40.105 : :Chapter 3
00:08:26.248 : :Chapter 4
00:10:46.888 : :Chapter 5
00:12:52.764 : :Chapter 6
00:16:52.545 : :Chapter 7
00:20:07.865 : :Chapter 8
00:23:38.993 : :Chapter 9
00:26:26.660 : :Chapter 10
00:29:03.484 : :Chapter 11
00:29:37.643 : :Chapter 12
00:35:00.048 : :Chapter 13
00:36:48.740 : :Chapter 14
00:42:59.277 : :Chapter 15
00:45:26.215 : :Chapter 16
00:47:11.737 : :Chapter 17
00:53:33.160 : :Chapter 18
00:56:48.105 : :Chapter 19
01:05:32.170 : :Chapter 20
01:10:20.083 : :Chapter 21
01:14:05.808 : :Chapter 22
01:16:10.808 : :Chapter 23
01:19:59.161 : :Chapter 24
01:22:50.624 : :Chapter 25
01:23:40.174 : :Chapter 26
01:28:21.747 : :Chapter 27
01:29:19.972 : :Chapter 28
01:32:51.850 : :Chapter 29
01:36:59.222 : :Chapter 30
01:44:41.267 : :Chapter 31
01:46:21.158 : :Chapter 32
01:47:58.964 : :Chapter 33
01:50:11.222 : :Chapter 34
01:52:21.518 : :Chapter 35
01:53:54.445 : :Chapter 36
01:55:21.949 : :Chapter 37
01:56:10.998 : :Chapter 38
01:57:53.350 : :Chapter 39
02:06:38.458 : :Chapter 40
02:08:50.089 : :Chapter 41
02:11:22.200 : :Chapter 42
02:15:42.668 : :Chapter 43
02:19:43.575 : :Chapter 44
02:21:24.093 : :Chapter 45
02:25:28.879 : :Chapter 46
02:27:28.540 : :Chapter 47
02:29:07.389 : :Chapter 48
02:29:55.979 : :Chapter 49
02:33:31.653 : :Chapter 50
02:36:52.478 : :Chapter 51
02:38:33.996 : :Chapter 52
02:40:34.784 : :Chapter 53
02:45:00.758 : :Chapter 54
02:47:48.926 : :Chapter 55
02:49:22.644 : :Chapter 56
02:52:09.728 : :Chapter 57
02:53:41.445 : :Chapter 58
02:57:52.946 : :Chapter 59
02:59:35.423 : :Chapter 60
03:01:28.870 : :Chapter 61
03:03:13.766 : :Chapter 62
03:04:57.995 : :Chapter 63
03:07:19.762 : :Chapter 64

Download Links

CONTRASEÑA PARA DESCOMPRIMIR

APORTES NUEVOS

cinemaniahdd.com

APORTES VIEJOS

CinemaniaHD.org

COMPRA O RENUEVA TU PREMIUM DE UPLOADED DESDE EL SIGUIENTE LINK:

http://ul.to/ref/9821430

SI GUSTAS PUEDES SEGUIRNOS EN LAS REDES SOCIALES

Facebook

Twitter

Post Relacionados