Actualmente tenemos 4572 para descargar peliculas gratis 1080p latino

The Accountant (2016) 1080p BluRay x265 HEVC DTS Dual Latino

el-contador-2016-x265
Christian Wolff es un contable y genio matemático, un hombre obsesivo con el orden y con mucha más afinidad con los números que con las personas, que lleva una doble vida como asesino despiadado.


Titulo Original The Accountant
Año 2016-10-14
Duracion 128
Guion Bill Dubuque
Director Gavin O'Connor
Musica
Photografia
Reparto Ben Affleck, Anna Kendrick, J.K. Simmons, Jon Bernthal
Productora Zero Gravity Management, Warner Bros., Electric City Entertainment,
Genero Crimen, Suspense, Drama,
Titulo original The Accountant
Titulo Latino El Contador
Otros Titulos El Contable
Audio Español Latino AC3 5.1 - Inglés DTS 5.1
Calidad: FULL HD 1080p Resolucion: 1920x1080 Formato: MKV
Codec: H.265 Encoder: Sebastian1813 Peso: 4.35 GB
Subtitulos: Español Latino (PGS/SRT) - Forzados (PGS/SRT) Duracion: 2h 8min Capitulos:
  • No hay video embed hola

The.Accountant.2016.1080p.BluRay.x265.HEVC.DTS.Dual.Latino-Papelillio.mkv
Format : Matroska
Format version : Version 4 / Version 2
File size : 4.35 GiB
Duration : 2h 7mn
Overall bit rate : 4 866 Kbps
Encoded date : UTC 2016-12-25 16:59:00
Writing application : mkvmerge v7.4.0 ('Circles') 64bit built on Dec 12 2014 12:19:56
Writing library : libebml v1.3.0 + libmatroska v1.4.1
DURATION : 01:28:40.189000000
NUMBER_OF_FRAMES : 26
NUMBER_OF_BYTES : 865
_STATISTICS_WRITING_APP : mkvmerge v7.4.0 ('Circles') 64bit built on Dec 12 2014 12:19:56
_STATISTICS_WRITING_DATE_UT : 2016-12-25 16:59:00
_STATISTICS_TAGS : BPS DURATION NUMBER_OF_FRAMES NUMBER_OF_BYTES

Video
ID : 1
Format : HEVC
Format/Info : High Efficiency Video Coding
Format profile : Main@L4@Main
Codec ID : V_MPEGH/ISO/HEVC
Duration : 2h 7mn
Bit rate : 2 621 Kbps
Width : 1 920 pixels
Height : 1 080 pixels
Display aspect ratio : 16:9
Frame rate mode : Constant
Frame rate : 23.976 fps
Color space : YUV
Chroma subsampling : 4:2:0
Bit depth : 8 bits
Bits/(Pixel*Frame) : 0.053
Stream size : 2.34 GiB (54%)
Title : Fuente Encodeo: BD50 - Papelillio
Writing library : x265 1.9:[Windows][GCC 4.9.0][64 bit] 8bit
Encoding settings : wpp / ctu=64 / min-cu-size=8 / max-tu-size=32 / tu-intra-depth=1 / tu-inter-depth=1 / me=3 / subme=3 / merange=57 / rect / no-amp / max-merge=3 / temporal-mvp / no-early-skip / rdpenalty=0 / no-tskip / no-tskip-fast / strong-intra-smoothing / no-lossless / no-cu-lossless / no-constrained-intra / no-fast-intra / open-gop / no-temporal-layers / interlace=0 / keyint=240 / min-keyint=24 / scenecut=40 / rc-lookahead=25 / lookahead-slices=4 / bframes=4 / bframe-bias=0 / b-adapt=2 / ref=4 / limit-refs=3 / limit-modes / weightp / no-weightb / aq-mode=1 / qg-size=32 / aq-strength=1.00 / cbqpoffs=0 / crqpoffs=0 / rd=4 / psy-rd=2.00 / rdoq-level=2 / psy-rdoq=1.00 / signhide / deblock / sao / no-sao-non-deblock / b-pyramid / cutree / no-intra-refresh / rc=crf / crf=20.0 / qcomp=0.60 / qpmin=0 / qpmax=51 / qpstep=4 / ipratio=1.40 / pbratio=1.30
Default : Yes
Forced : No
Color range : Limited
Color primaries : BT.709
Transfer characteristics : BT.709
Matrix coefficients : BT.709
DURATION : 02:07:54.292000000
NUMBER_OF_FRAMES : 183998
NUMBER_OF_BYTES : 2594397170
_STATISTICS_WRITING_APP : mkvmerge v7.4.0 ('Circles') 64bit built on Dec 12 2014 12:19:56
_STATISTICS_WRITING_DATE_UT : 2016-12-25 16:59:00
_STATISTICS_TAGS : BPS DURATION NUMBER_OF_FRAMES NUMBER_OF_BYTES

Audio #1
ID : 2
Format : AC-3
Format/Info : Audio Coding 3
Mode extension : CM (complete main)
Format settings, Endianness : Big
Codec ID : A_AC3
Duration : 2h 7mn
Bit rate mode : Constant
Bit rate : 640 Kbps
Channel(s) : 6 channels
Channel positions : Front: L C R, Side: L R, LFE
Sampling rate : 48.0 KHz
Compression mode : Lossy
Delay relative to video : -83ms
Stream size : 586 MiB (13%)
Title : Audio Español Latino AC3 5.1 @640Kbps - Papelillio
Language : Spanish
Default : Yes
Forced : No

Audio #2
ID : 3
Format : DTS
Format/Info : Digital Theater Systems
Mode : 16
Format settings, Endianness : Big
Codec ID : A_DTS
Duration : 2h 7mn
Bit rate mode : Constant
Bit rate : 1 509 Kbps
Channel(s) : 6 channels
Channel positions : Front: L C R, Side: L R, LFE
Sampling rate : 48.0 KHz
Bit depth : 16 bits
Compression mode : Lossy
Delay relative to video : -83ms
Stream size : 1.35 GiB (31%)
Title : Audio Inglés DTS 5.1 @1509Kbps - Papelillio
Language : English
Default : No
Forced : No

Text #1
ID : 4
Format : UTF-8
Codec ID : S_TEXT/UTF8
Codec ID/Info : UTF-8 Plain Text
Title : Subtítulos Español Latino - Forzados (SRT) - Papelillio
Language : Spanish
Default : Yes
Forced : No

Text #2
ID : 5
Format : UTF-8
Codec ID : S_TEXT/UTF8
Codec ID/Info : UTF-8 Plain Text
Title : Subtítulos Español Latino (SRT) - Papelillio
Language : Spanish
Default : No
Forced : No

Text #3
ID : 6
Format : PGS
Muxing mode : zlib
Codec ID : S_HDMV/PGS
Codec ID/Info : Picture based subtitle format used on BDs/HD-DVDs
Title : Subtítulos Español Latino - Forzados (PGS) - Papelillio
Language : Spanish
Default : No
Forced : No

Text #4
ID : 7
Format : PGS
Muxing mode : zlib
Codec ID : S_HDMV/PGS
Codec ID/Info : Picture based subtitle format used on BDs/HD-DVDs
Title : Subtítulos Español Latino (PGS) - Papelillio
Language : Spanish
Default : No
Forced : No

Menu
00:00:00.000 : :Chapter 1
00:13:01.530 : :Chapter 2
00:20:36.360 : :Chapter 3
00:29:30.477 : :Chapter 4
00:38:44.739 : :Chapter 5
00:49:33.762 : :Chapter 6
01:00:05.518 : :Chapter 7
01:13:39.790 : :Chapter 8
01:25:57.152 : :Chapter 9
01:39:15.741 : :Chapter 10
01:54:31.239 : :Chapter 11
02:01:40.334 : :Chapter 12

Download Links

CONTRASEÑA PARA DESCOMPRIMIR

APORTES NUEVOS

cinemaniahdd.com

APORTES VIEJOS

CinemaniaHD.org

COMPRA O RENUEVA TU PREMIUM DE UPLOADED DESDE EL SIGUIENTE LINK:

http://ul.to/ref/9821430

SI GUSTAS PUEDES SEGUIRNOS EN LAS REDES SOCIALES

Facebook

Twitter

Post Relacionados