Actualmente tenemos 4572 para descargar peliculas gratis 1080p latino

Scary Movie 5 UNRATED (2013) 1080p Dual

Scary_Movie_5-154377743-large

Ficha

Titulo Original: Scary MoVie (Scary Movie 5)

1080p | 1920x1080 | MKV | H.264 | Encoder by: CinemaniaHD | AC3 5.1 | 1.9 GB  | 1:28:7 min | Audio: Español Latino - Ingles  | Subtitulos: Español Latino + Aparte SRT | Comedia | 2013 | 5% Registro de Recuperacion (Reparar Rar dañados)

MediaInfo:

[spoiler]

General

Format : Matroska
Format version : Version 4 / Version 2
File size : 1.93 GiB
Duration : 1h 28mn
Overall bit rate : 3 139 Kbps
Movie name : Scary Movie 5 [2013 [1080p Dual] [wWw.CinemaniaHD.org]
Encoded date : UTC 2013-08-08 01:24:32
Writing application : mkvmerge v6.1.0 ('Old Devil') built on Mar 2 2013 14:32:37
Writing library : libebml v1.3.0 + libmatroska v1.4.0

Video
ID : 1
Format : AVC
Format/Info : Advanced Video Codec
Format profile : High@L4.0
Format settings, CABAC : Yes
Format settings, ReFrames : 4 frames
Codec ID : V_MPEG4/ISO/AVC
Duration : 1h 28mn
Bit rate : 2 500 Kbps
Width : 1 920 pixels
Height : 1 080 pixels
Display aspect ratio : 16:9
Frame rate mode : Constant
Frame rate : 23.976 fps
Color space : YUV
Chroma subsampling : 4:2:0
Bit depth : 8 bits
Scan type : Progressive
Bits/(Pixel*Frame) : 0.050
Stream size : 1.50 GiB (78%)
Title : wWw.CinemaniaHD.org
Writing library : x264 core 133 r2334 a3ac64b
Encoding settings : cabac=1 / ref=3 / deblock=1:0:0 / analyse=0x3:0x113 / me=hex / subme=7 / psy=1 / psy_rd=1.00:0.00 / mixed_ref=1 / me_range=16 / chroma_me=1 / trellis=1 / 8x8dct=1 / cqm=0 / deadzone=21,11 / fast_pskip=1 / chroma_qp_offset=-2 / threads=12 / lookahead_threads=2 / sliced_threads=0 / nr=0 / decimate=1 / interlaced=0 / bluray_compat=0 / constrained_intra=0 / bframes=3 / b_pyramid=2 / b_adapt=1 / b_bias=0 / direct=1 / weightb=1 / open_gop=0 / weightp=2 / keyint=240 / keyint_min=23 / scenecut=40 / intra_refresh=0 / rc_lookahead=40 / rc=2pass / mbtree=1 / bitrate=2500 / ratetol=1.0 / qcomp=0.60 / qpmin=0 / qpmax=69 / qpstep=4 / cplxblur=20.0 / qblur=0.5 / ip_ratio=1.40 / aq=1:1.00
Default : Yes
Forced : No

Audio #1
ID : 2
Format : AC-3
Format/Info : Audio Coding 3
Mode extension : CM (complete main)
Format settings, Endianness : Big
Codec ID : A_AC3
Duration : 1h 28mn
Bit rate mode : Constant
Bit rate : 384 Kbps
Channel(s) : 6 channels
Channel positions : Front: L C R, Side: L R, LFE
Sampling rate : 44.1 KHz
Bit depth : 16 bits
Compression mode : Lossy
Stream size : 242 MiB (12%)
Title : Español Latino [wWw.CinemaniaHD.org]
Default : Yes
Forced : No

Audio #2
ID : 3
Format : AC-3
Format/Info : Audio Coding 3
Mode extension : CM (complete main)
Format settings, Endianness : Big
Codec ID : A_AC3
Duration : 1h 28mn
Bit rate mode : Constant
Bit rate : 256 Kbps
Channel(s) : 6 channels
Channel positions : Front: L C R, Side: L R, LFE
Sampling rate : 44.1 KHz
Bit depth : 16 bits
Compression mode : Lossy
Stream size : 161 MiB (8%)
Title : Ingles [wWw.CinemaniaHD.org]
Default : No
Forced : No

Text #1
ID : 4
Format : UTF-8
Codec ID : S_TEXT/UTF8
Codec ID/Info : UTF-8 Plain Text
Title : Subtitulos Español [wWw.CinemaniaHD.org]
Default : No
Forced : No

Text #2
ID : 5
Format : UTF-8
Codec ID : S_TEXT/UTF8
Codec ID/Info : UTF-8 Plain Text
Title : wWw.CinemaniaHD.org
Default : Yes
Forced : No

 

[/spoiler]

Sinopsis

Los felizmente casados Dan y Jody empiezan a observar algunos fenómenos extraños en su casa tras volver del hospital con su bebé, Aiden. Pero cuando el caos se apodera del trabajo de Jody como bailarina de ballet y de la carrera de Dan como investigador de monos, la pareja descubre que está siendo acosada por una presencia demoníaca. Juntos, con la ayuda de expertos cualificados y de numerosas cámaras, intentarán deshacerse del maléfico ser antes de que sea demasiado tarde.

Capturas

Trailer

http://www.youtube.com/watch?v=Vn1uwEiTfMM

DESCARGAR

[ocultar]

Links Intercambiables

BillonUploads - 4Shared - PutLocker - Mega - Freakshare - Uploaded.to - Uptobox

Links

LINKS DIRECTOS MEGA Y PUTLOCKER >Usuaios V.I.P.

Links

PASSWORD

CinemaniaHD.org

[/ocultar]

Post Relacionados