Actualmente tenemos 4572 para descargar peliculas gratis 1080p latino

Pasajero 57 (1992) 1080p BluRay x265 HEVC DTS Dual Latino

pasajero-57-x265
Charles Rane está considerado uno de los más peligrosos terroristas del mundo. Custodiado por agentes federales, Rane es trasladado a Los Angeles en avión para ser juzgado por los crímenes cometidos. A pesar de las medidas de seguridad, Rane consigue liberarse y se hace con el mando del avión, pero no cuenta con que en el mismo vuelo, sentado en el asiento número 57, viaja John Cutter, un especialista en lucha antiterrorista.


Titulo Original Passenger 57
Año 1992-11-05
Duracion
Guion Stewart Raffill (story), Dan Gordon (story), David Loughery (screenplay), Dan Gordon (screenplay)
Director Kevin Hooks
Musica
Photografia
Reparto Wesley Snipes, Bruce Payne, Tom Sizemore, Alex Datcher
Productora Warner Bros.,
Genero Acción, Aventura, Suspense,
Titulo original Passenger 57
Titulo Latino Pasajero 57
Otros Titulos Pasajero 57
Audio Español Latino AC3 2.0 - Inglés DTS 5.1
Calidad: FULL HD Resolucion: 1920X1080 Formato: MKV
Codec: H.265 Encoder: Sebastian1813 Peso: 3.23 GB
Subtitulos: Español Latino [PGS] Duracion: 1h 24min Capitulos:
  • No hay video embed hola

Pasajero 57 (1992) 1080p BluRay x265 HEVC DTS Dual Latino.mkv
Format : Matroska
Format version : Version 4 / Version 2
File size : 3.23 GiB
Duration : 1h 23mn
Overall bit rate : 5 518 Kbps
Encoded date : UTC 2017-01-01 14:49:36
Writing application : mkvmerge v8.6.1 ('Flying') 64bit
Writing library : libebml v1.3.3 + libmatroska v1.4.4
DURATION : 01:22:22.521000000
NUMBER_OF_FRAMES : 1712
NUMBER_OF_BYTES : 15382951
_STATISTICS_WRITING_APP : mkvmerge v8.6.1 ('Flying') 64bit
_STATISTICS_WRITING_DATE_UT : 2017-01-01 14:49:36
_STATISTICS_TAGS : BPS DURATION NUMBER_OF_FRAMES NUMBER_OF_BYTES

Video
ID : 1
Format : HEVC
Format/Info : High Efficiency Video Coding
Format profile : Main@L4@Main
Codec ID : V_MPEGH/ISO/HEVC
Duration : 1h 23mn
Bit rate : 3 707 Kbps
Width : 1 920 pixels
Height : 1 080 pixels
Display aspect ratio : 16:9
Frame rate mode : Constant
Frame rate : 23.976 fps
Color space : YUV
Chroma subsampling : 4:2:0
Bit depth : 8 bits
Bits/(Pixel*Frame) : 0.075
Stream size : 2.17 GiB (67%)
Writing library : x265 1.9:[Windows][GCC 4.9.0][64 bit] 8bit
Encoding settings : wpp / ctu=64 / min-cu-size=8 / max-tu-size=32 / tu-intra-depth=1 / tu-inter-depth=1 / me=3 / subme=3 / merange=57 / rect / no-amp / max-merge=3 / temporal-mvp / no-early-skip / rdpenalty=0 / no-tskip / no-tskip-fast / strong-intra-smoothing / no-lossless / no-cu-lossless / no-constrained-intra / no-fast-intra / open-gop / no-temporal-layers / interlace=0 / keyint=240 / min-keyint=24 / scenecut=40 / rc-lookahead=25 / lookahead-slices=4 / bframes=4 / bframe-bias=0 / b-adapt=2 / ref=4 / limit-refs=3 / limit-modes / weightp / no-weightb / aq-mode=1 / qg-size=32 / aq-strength=1.00 / cbqpoffs=0 / crqpoffs=0 / rd=4 / psy-rd=2.00 / rdoq-level=2 / psy-rdoq=1.00 / signhide / deblock / sao / no-sao-non-deblock / b-pyramid / cutree / no-intra-refresh / rc=crf / crf=20.0 / qcomp=0.60 / qpmin=0 / qpmax=51 / qpstep=4 / ipratio=1.40 / pbratio=1.30
Default : Yes
Forced : No
Color range : Limited
Color primaries : BT.709
Transfer characteristics : BT.709
Matrix coefficients : BT.709
DURATION : 01:23:43.644000000
NUMBER_OF_FRAMES : 120447
NUMBER_OF_BYTES : 2380517188
_STATISTICS_WRITING_APP : mkvmerge v8.6.1 ('Flying') 64bit
_STATISTICS_WRITING_DATE_UT : 2017-01-01 14:49:36
_STATISTICS_TAGS : BPS DURATION NUMBER_OF_FRAMES NUMBER_OF_BYTES

Audio #1
ID : 2
Format : AC-3
Format/Info : Audio Coding 3
Format profile : Dolby Digital
Mode extension : CM (complete main)
Format settings, Endianness : Big
Codec ID : A_AC3
Duration : 1h 23mn
Bit rate mode : Constant
Bit rate : 192 Kbps
Channel(s) : 2 channels
Channel positions : Front: L R
Sampling rate : 48.0 KHz
Compression mode : Lossy
Delay relative to video : -83ms
Stream size : 115 MiB (3%)
Title : Español Latino AC3 2.0 [192 Kbps]
Language : Spanish
Default : Yes
Forced : No

Audio #2
ID : 3
Format : DTS
Format/Info : Digital Theater Systems
Mode : 16
Format settings, Endianness : Big
Codec ID : A_DTS
Duration : 1h 23mn
Bit rate mode : Constant
Bit rate : 1 509 Kbps
Channel(s) : 6 channels
Channel positions : Front: L C R, Side: L R, LFE
Sampling rate : 48.0 KHz
Bit depth : 24 bits
Compression mode : Lossy
Delay relative to video : -83ms
Stream size : 904 MiB (27%)
Title : Inglés DTS 5.1 [1509 Kbps]
Language : English
Default : No
Forced : No

Text
ID : 4
Format : PGS
Codec ID : S_HDMV/PGS
Codec ID/Info : Picture based subtitle format used on BDs/HD-DVDs
Title : Subtítulos Español Latino [PGS]
Language : Spanish
Default : No
Forced : No

Menu
00:00:00.000 : :Chapter 1
00:09:55.553 : :Chapter 2
00:19:39.803 : :Chapter 3
00:29:12.667 : :Chapter 4
00:39:04.884 : :Chapter 5
00:49:26.171 : :Chapter 6
00:59:28.106 : :Chapter 7
01:10:21.133 : :Chapter 8
01:20:38.750 : :Chapter 9

Download Links

CONTRASEÑA PARA DESCOMPRIMIR

APORTES NUEVOS

cinemaniahdd.com

APORTES VIEJOS

CinemaniaHD.org

COMPRA O RENUEVA TU PREMIUM DE UPLOADED DESDE EL SIGUIENTE LINK:

http://ul.to/ref/9821430

SI GUSTAS PUEDES SEGUIRNOS EN LAS REDES SOCIALES

Facebook

Twitter

Post Relacionados