Actualmente tenemos 4572 para descargar peliculas gratis 1080p latino

Mision Rescate (2015) 720p Latino-Ingles 1 Link Mega

Mision Rescate (The Martian) Brrip 720p Español Latino 1 Link por mega. Durante una misión tripulada a Marte, el astronauta Mark Watney es dado por muerto tras una terrible tormenta y abandonado por la tripulación, que pone rumbo de vuelta a la Tierra.



Titulo Original The Martian
Año 2015
Duracion 142 Min
Guion
Director Ridley Scott
Musica Harry Gregson
Photografia Dariusz Wolski
Reparto Matt Damon, Jessica Chastain, Chiwetel Ejiofor, Jeff Daniels
Productora Matt Damon, Jessica Chastain, Chiwetel Ejiofor, Jeff Daniels
Genero
Titulo original The Martian HD 720p Latino Mega
Titulo Latino Mision Rescate HD 720p Latino Mega
Otros Titulos Marte (2015) HD 720p Latino Mega
Audio Español Latino (AC3 5.1 BD) - Ingles (AC3 5.1 BD)
Calidad: 720p Resolucion: 1280x528 Formato: MKV
Codec: H.264 Encoder: DexterHD Peso: 2.38 GB
Subtitulos: Español Latino (.PGS) - Ingles (.PGS) Duracion: 02:21:36 Min Capitulos:
  • No hay video embed hola

General: Mision Rescate (2015) 720p Latino-Ingles [WwW.CinemaniaHDD.com].mkv
Format : Matroska
Format version : Version 2
File size : 2.38 GiB
Duration : 2h 21mn
Overall bit rate : 2 408 Kbps
Movie name : Mision Rescate (2015) 720p Latino-Ingles [WwW.CinemaniaHDD.com]
Encoded date : UTC 2016-01-05 00:44:16
Writing application : mkvmerge v5.7.0 ('The Whirlwind') built on Jul 8 2012 20:08:51
Writing library : libebml v1.2.3 + libmatroska v1.3.0

Video
ID : 1
Format : AVC
Format/Info : Advanced Video Codec
Format profile : High@L4.1
Format settings, CABAC : Yes
Format settings, ReFrames : 2 frames
Muxing mode : Header stripping
Codec ID : V_MPEG4/ISO/AVC
Duration : 2h 21mn
Bit rate : 1 500 Kbps
Width : 1 280 pixels
Height : 536 pixels
Display aspect ratio : 2.40:1
Frame rate mode : Constant
Frame rate : 23.976 (24000/1001) fps
Color space : YUV
Chroma subsampling : 4:2:0
Bit depth : 8 bits
Scan type : Progressive
Bits/(Pixel*Frame) : 0.091
Stream size : 1.45 GiB (61%)
Title : [WwW.CinemaniaHDD.com]
Writing library : x264 core 142
Encoding settings : cabac=1 / ref=1 / deblock=1:-1:-1 / analyse=0x3:0 / me=hex / subme=5 / psy=0 / mixed_ref=0 / me_range=16 / chroma_me=1 / trellis=0 / 8x8dct=1 / cqm=0 / deadzone=21,11 / fast_pskip=1 / chroma_qp_offset=0 / threads=8 / lookahead_threads=2 / sliced_threads=0 / nr=0 / decimate=1 / interlaced=0 / bluray_compat=0 / constrained_intra=0 / bframes=2 / b_pyramid=0 / b_adapt=1 / b_bias=0 / direct=1 / weightb=1 / open_gop=0 / weightp=0 / keyint=24 / keyint_min=13 / scenecut=40 / intra_refresh=0 / rc=abr / mbtree=0 / bitrate=1500 / ratetol=1.0 / qcomp=0.60 / qpmin=0 / qpmax=69 / qpstep=4 / ip_ratio=1.40 / pb_ratio=1.30 / aq=1:1.00
Default : Yes
Forced : No
Color range : Limited
Color primaries : BT.709
Transfer characteristics : BT.709
Matrix coefficients : BT.709

Audio #1
ID : 2
Format : AC-3
Format/Info : Audio Coding 3
Mode extension : CM (complete main)
Format settings, Endianness : Big
Muxing mode : Header stripping
Codec ID : A_AC3
Duration : 2h 21mn
Bit rate mode : Constant
Bit rate : 448 Kbps
Channel(s) : 6 channels
Channel positions : Front: L C R, Side: L R, LFE
Sampling rate : 48.0 KHz
Frame rate : 31.250 fps (1536 spf)
Compression mode : Lossy
Stream size : 454 MiB (19%)
Title : Audio Latino [WwW.CinemaniaHDD.com]
Language : Spanish
Default : Yes
Forced : No

Audio #2
ID : 3
Format : AC-3
Format/Info : Audio Coding 3
Mode extension : CM (complete main)
Format settings, Endianness : Big
Muxing mode : Header stripping
Codec ID : A_AC3
Duration : 2h 21mn
Bit rate mode : Constant
Bit rate : 448 Kbps
Channel(s) : 6 channels
Channel positions : Front: L C R, Side: L R, LFE
Sampling rate : 48.0 KHz
Frame rate : 31.250 fps (1536 spf)
Compression mode : Lossy
Stream size : 454 MiB (19%)
Title : Audio Ingles [WwW.CinemaniaHDD.com]
Language : English
Default : No
Forced : No

Text #1
ID : 4
Format : PGS
Muxing mode : zlib
Codec ID : S_HDMV/PGS
Codec ID/Info : Picture based subtitle format used on BDs/HD-DVDs
Title : Subtitulos Latino [WwW.CinemaniaHDD.com]
Language : Spanish
Default : No
Forced : No

Text #2
ID : 5
Format : PGS
Muxing mode : zlib
Codec ID : S_HDMV/PGS
Codec ID/Info : Picture based subtitle format used on BDs/HD-DVDs
Title : Subtitulos Ingles [WwW.CinemaniaHDD.com]
Language : English
Default : No
Forced : No

Download Links

CONTRASEÑA PARA DESCOMPRIMIR

APORTES NUEVOS

cinemaniahdd.com

APORTES VIEJOS

CinemaniaHD.org

COMPRA O RENUEVA TU PREMIUM DE UPLOADED DESDE EL SIGUIENTE LINK:

http://ul.to/ref/9821430

SI GUSTAS PUEDES SEGUIRNOS EN LAS REDES SOCIALES

Facebook

Twitter

Post Relacionados