Actualmente tenemos 4572 para descargar peliculas gratis 1080p latino

Miles Ahead (2015) 1080p FULL HD Latino – Ingles

Biopic del legendiario músico de jazz Miles Davis.



Titulo Original Miles Ahead
Año 2015
Duracion 100 min.
Guion
Director Don Cheadle
Musica Herbie Hancock
Photografia Roberto Schaefer
Reparto Don Cheadle, Ewan McGregor, Michael Stuhlbarg, Emayatzy Corinealdi, Lakeith Lee Stanfield, Morgan Wolk, Austin Lyon
Productora Don Cheadle, Ewan McGregor, Michael Stuhlbarg, Emayatzy Corinealdi, Lakeith Lee Stanfield, Morgan Wolk, Austin Lyon
Genero
Titulo original Miles Ahead (2015) 1080p FULL HD Latino – Ingles
Titulo Latino Miles Ahead (2015) 1080p FULL HD Latino – Ingles
Otros Titulos Miles Ahead (2015) 1080p FULL HD Latino – Ingles
Audio Español Latino [AC3 5.1 BD] - Ingles [AC3 5.1 BD]
Calidad: FULL HD 1080p Resolucion: 1920x1080p Formato: MKV
Codec: H.264 Encoder: ADDKiQ Peso: 3.6 GB
Subtitulos: Español Latino [SRT+PGS] - Ingles [PGS] Duracion: 100 min. Capitulos:
  • No hay video embed hola

General
Complete name : E:\Miles.ahead.2015.ADDKiQ.mkv
Format : Matroska
Format version : Version 2
File size : 3.65 GiB
Duration : 1h 40mn
Overall bit rate : 5 191 Kbps
Encoded date : UTC 2016-07-11T13:27:24Z
Writing application : HandBrake 0.10.5 2016021100
Writing library : Lavf55.12.0

Video
ID : 1
Format : AVC
Format/Info : Advanced Video Codec
Format profile : High@L4.1
Format settings, CABAC : Yes
Format settings, ReFrames : 4 frames
Codec ID : V_MPEG4/ISO/AVC
Duration : 1h 40mn
Bit rate : 3 808 Kbps
Width : 1 920 pixels
Height : 1 080 pixels
Display aspect ratio : 16:9
Frame rate mode : Constant
Frame rate : 24.000 fps
Color space : YUV
Chroma subsampling : 4:2:0
Bit depth : 8 bits
Scan type : Progressive
Bits/(Pixel*Frame) : 0.077
Stream size : 2.68 GiB (73%)
Writing library : x264 core 142 r2479 dd79a61
Encoding settings : cabac=1 / ref=4 / deblock=1:0:0 / analyse=0x3:0x133 / me=esa / subme=9 / psy=1 / psy_rd=1.00:0.00 / mixed_ref=1 / me_range=16 / chroma_me=1 / trellis=2 / 8x8dct=1 / cqm=0 / deadzone=21,11 / fast_pskip=1 / chroma_qp_offset=-2 / threads=12 / lookahead_threads=1 / sliced_threads=0 / nr=0 / decimate=1 / interlaced=0 / bluray_compat=0 / constrained_intra=0 / bframes=3 / b_pyramid=2 / b_adapt=2 / b_bias=0 / direct=3 / weightb=1 / open_gop=0 / weightp=2 / keyint=240 / keyint_min=24 / scenecut=40 / intra_refresh=0 / rc_lookahead=60 / rc=crf / mbtree=1 / crf=23.0 / qcomp=0.60 / qpmin=0 / qpmax=69 / qpstep=4 / vbv_maxrate=62500 / vbv_bufsize=78125 / crf_max=0.0 / nal_hrd=none / filler=0 / ip_ratio=1.40 / aq=1:1.00
Default : Yes
Forced : No
Color range : Limited
Color primaries : BT.709
Transfer characteristics : BT.709
Matrix coefficients : BT.709

Audio #1
ID : 2
Format : AC-3
Format/Info : Audio Coding 3
Mode extension : CM (complete main)
Format settings, Endianness : Big
Codec ID : A_AC3
Duration : 1h 40mn
Bit rate mode : Constant
Bit rate : 640 Kbps
Channel(s) : 6 channels
Channel positions : Front: L C R, Side: L R, LFE
Sampling rate : 48.0 KHz
Compression mode : Lossy
Stream size : 461 MiB (12%)
Title : Surround
Language : Spanish
Default : Yes
Forced : No

Audio #2
ID : 3
Format : AC-3
Format/Info : Audio Coding 3
Mode extension : CM (complete main)
Format settings, Endianness : Big
Codec ID : A_AC3
Duration : 1h 40mn
Bit rate mode : Constant
Bit rate : 640 Kbps
Channel(s) : 6 channels
Channel positions : Front: L C R, Side: L R, LFE
Sampling rate : 48.0 KHz
Compression mode : Lossy
Stream size : 461 MiB (12%)
Title : Surround
Language : English
Default : No
Forced : No

Text #1
ID : 4
Format : PGS
Codec ID : S_HDMV/PGS
Codec ID/Info : Picture based subtitle format used on BDs/HD-DVDs
Language : Spanish
Default : No
Forced : No

Text #2
ID : 5
Format : PGS
Codec ID : S_HDMV/PGS
Codec ID/Info : Picture based subtitle format used on BDs/HD-DVDs
Language : English
Default : No
Forced : No

Menu
00:00:00.000 : :Chapter 1
00:06:18.501 : :Chapter 2
00:12:45.596 : :Chapter 3
00:19:38.341 : :Chapter 4
00:25:01.581 : :Chapter 5
00:31:43.524 : :Chapter 6
00:37:35.668 : :Chapter 7
00:43:50.042 : :Chapter 8
00:50:51.087 : :Chapter 9
00:56:15.161 : :Chapter 10
01:02:57.396 : :Chapter 11
01:09:10.436 : :Chapter 12
01:14:39.681 : :Chapter 13
01:19:29.220 : :Chapter 14
01:24:21.971 : :Chapter 15
01:31:39.825 : :Chapter 16

Download Links

CONTRASEÑA PARA DESCOMPRIMIR

APORTES NUEVOS

cinemaniahdd.com

APORTES VIEJOS

CinemaniaHD.org

COMPRA O RENUEVA TU PREMIUM DE UPLOADED DESDE EL SIGUIENTE LINK:

http://ul.to/ref/9821430

SI GUSTAS PUEDES SEGUIRNOS EN LAS REDES SOCIALES

Facebook

Twitter

Post Relacionados