Actualmente tenemos 4572 para descargar peliculas gratis 1080p latino

Jarhead 3:El asedio (2016) 1080p FULL HD Dual Latino

El cabo Evan Albright (Charlie Weber ) se unió a la élite Marine Corp para salvar al mundo y ver un poco de acción, aunque necesariamente en ese orden.



Titulo Original Jarhead 3: The Siege
Año 2015
Duracion 95 Min
Guion
Director William Kaufman
Musica
Photografia Mark Rutledge
Reparto
Productora
Genero
Titulo original Jarhead 3: The Siege (2016) 1080p FULL HD Dual Latino
Titulo Latino Jarhead 3:El asedio (2016) 1080p FULL HD Dual Latino
Otros Titulos Jarhead III: The Siege (2016) 1080p FULL HD Dual Latino
Audio Español Latino [DTS 5.1 BD] - Inglés [DTS 5.1 BD]
Calidad: FULL HD 1080p Resolucion: 1920x1080p Formato: MKV
Codec: H.264 Encoder: ADDKiQ Peso: 8.1 GB
Subtitulos: Español Latino [PGS] - Ingles [PGS] Duracion: 95 Min Capitulos:
  • No hay video embed hola

General
Unique ID : 201366919640851735006158346805466854350 (0x977DDBA826B409A895C6B4DEAFE373CE)
Complete name : P:\Video\Video\Jarhead.3.The.Siege.2016.1080p.BluRay.AVC.DTS-HD.MA.5.1-NsN\JARHEAD_3CINEMANIAHDD.COM.mkv
Format : Matroska
Format version : Version 2
File size : 8.14 GiB
Duration : 1h 28mn
Overall bit rate : 13.1 Mbps
Movie name : JARHEAD_3__THE_SIEGE.Title800
Encoded date : UTC 2016-02-07 23:23:09
Writing application : DVDFab 9.2.2.4
Writing library : libebml v0.7.8 + libmatroska v0.8.1

Video
ID : 1
Format : AVC
Format/Info : Advanced Video Codec
Format profile : High@L4.1
Format settings, CABAC : Yes
Format settings, ReFrames : 2 frames
Codec ID : V_MPEG4/ISO/AVC
Duration : 1h 28mn
Bit rate : 10.6 Mbps
Width : 1 920 pixels
Height : 1 080 pixels
Display aspect ratio : 16:9
Frame rate mode : Constant
Frame rate : 23.976 (24000/1001) fps
Color space : YUV
Chroma subsampling : 4:2:0
Bit depth : 8 bits
Scan type : Progressive
Bits/(Pixel*Frame) : 0.212
Stream size : 6.57 GiB (81%)
Writing library : x264 core 142
Encoding settings : cabac=1 / ref=1 / deblock=1:-1:-1 / analyse=0x3:0 / me=hex / subme=5 / psy=0 / mixed_ref=0 / me_range=16 / chroma_me=1 / trellis=0 / 8x8dct=1 / cqm=0 / deadzone=21,11 / fast_pskip=1 / chroma_qp_offset=0 / threads=24 / lookahead_threads=6 / sliced_threads=0 / nr=0 / decimate=1 / interlaced=0 / bluray_compat=0 / constrained_intra=0 / bframes=2 / b_pyramid=0 / b_adapt=1 / b_bias=0 / direct=1 / weightb=1 / open_gop=0 / weightp=0 / keyint=24 / keyint_min=13 / scenecut=40 / intra_refresh=0 / rc=crf / mbtree=0 / crf=20.0 / qcomp=0.60 / qpmin=0 / qpmax=69 / qpstep=4 / ip_ratio=1.40 / pb_ratio=1.30 / aq=1:1.00
Default : Yes
Forced : No
Color range : Limited
Color primaries : BT.709
Transfer characteristics : BT.709
Matrix coefficients : BT.709

Audio #1
ID : 2
Format : DTS
Format/Info : Digital Theater Systems
Mode : 16
Format settings, Endianness : Big
Codec ID : A_DTS
Duration : 1h 28mn
Bit rate mode : Constant
Bit rate : 768 Kbps
Channel(s) : 6 channels
Channel positions : Front: L C R, Side: L R, LFE
Sampling rate : 48.0 KHz
Frame rate : 93.750 fps (512 spf)
Bit depth : 24 bits
Compression mode : Lossy
Stream size : 489 MiB (6%)
Language : Spanish
Default : Yes
Forced : No

Audio #2
ID : 3
Format : DTS
Format/Info : Digital Theater Systems
Mode : 16
Format settings, Endianness : Big
Codec ID : A_DTS
Duration : 1h 28mn
Bit rate mode : Constant
Bit rate : 1 509 Kbps
Channel(s) : 6 channels
Channel positions : Front: L C R, Side: L R, LFE
Sampling rate : 48.0 KHz
Frame rate : 93.750 fps (512 spf)
Bit depth : 24 bits
Compression mode : Lossy
Stream size : 960 MiB (12%)
Language : English
Default : No
Forced : No

Text #1
ID : 4
Format : PGS
Codec ID : S_HDMV/PGS
Codec ID/Info : Picture based subtitle format used on BDs/HD-DVDs
Language : Spanish
Default : No
Forced : No

Text #2
ID : 5
Format : PGS
Codec ID : S_HDMV/PGS
Codec ID/Info : Picture based subtitle format used on BDs/HD-DVDs
Language : Spanish
Default : No
Forced : No

Text #3
ID : 6
Format : PGS
Codec ID : S_HDMV/PGS
Codec ID/Info : Picture based subtitle format used on BDs/HD-DVDs
Language : Spanish
Default : No
Forced : No

Text #4
ID : 7
Format : PGS
Codec ID : S_HDMV/PGS
Codec ID/Info : Picture based subtitle format used on BDs/HD-DVDs
Language : Spanish
Default : No
Forced : No

Menu
00:00:00.000 : en:(01)00:00:00:000
00:05:05.263 : en:(02)00:05:05:263
00:09:19.600 : en:(03)00:09:19:600
00:14:26.198 : en:(04)00:14:26:198
00:19:45.142 : en:(05)00:19:45:142
00:23:39.793 : en:(06)00:23:39:793
00:28:47.142 : en:(07)00:28:47:142
00:34:03.291 : en:(08)00:34:03:291
00:40:01.440 : en:(09)00:40:01:440
00:46:18.609 : en:(10)00:46:18:609
00:49:56.368 : en:(11)00:49:56:368
00:54:46.616 : en:(12)00:54:46:616
00:57:43.084 : en:(13)00:57:43:084
01:01:56.170 : en:(14)01:01:56:170
01:05:18.205 : en:(15)01:05:18:205
01:08:21.889 : en:(16)01:08:21:889
01:13:27.236 : en:(17)01:13:27:236
01:19:02.529 : en:(18)01:19:02:529
01:23:29.421 : en:(19)01:23:29:421
01:25:34.379 : en:(20)01:25:34:379
01:28:58.958 : en:(21)01:28:58:958

Download Links

CONTRASEÑA PARA DESCOMPRIMIR

APORTES NUEVOS

cinemaniahdd.com

APORTES VIEJOS

CinemaniaHD.org

COMPRA O RENUEVA TU PREMIUM DE UPLOADED DESDE EL SIGUIENTE LINK:

http://ul.to/ref/9821430

SI GUSTAS PUEDES SEGUIRNOS EN LAS REDES SOCIALES

Facebook

Twitter

Post Relacionados