Actualmente tenemos 4572 para descargar peliculas gratis 1080p latino

Fun Size (2012) FULL 1080p Latino-Ingles

Los planes de Wren para acudir a una fiesta de halloween que celebra el chico que le gusta peligran cuando tiene que quedarse a cargo de su hermano pequeño, un bicho raro que pronto desaparece.



Titulo Original Fun Size
Año 2012
Duracion 90 Min
Guion
Director Josh Schwartz
Musica Lyle Workman
Photografia Yaron Orbach
Reparto Victoria Justice, Johnny Knoxville, Chelsea Handler, Thomas Mann, Jane Levy, Kerri Kenney, Riki Lindhome, Osric Chau, Thomas McDonell, Josh Schwartz, Ana Gasteyer, Thomas Middleditch, Holmes Osborne, Morgane Slemp, Allison Weissman, Jackson Nicoll
Productora Victoria Justice, Johnny Knoxville, Chelsea Handler, Thomas Mann, Jane Levy, Kerri Kenney, Riki Lindhome, Osric Chau, Thomas McDonell, Josh Schwartz, Ana Gasteyer, Thomas Middleditch, Holmes Osborne, Morgane Slemp, Allison Weissman, Jackson Nicoll
Genero
Titulo original Fun Size
Titulo Latino Diversión XL
Otros Titulos Fun Size
Audio Español Latino (AC3 5.1 BD) - Ingles (AC3 5.1 BD)
Calidad: FULL 1080p Resolucion: 1920x1080 Formato: MKV
Codec: H.264 Encoder: ROLLERHD Peso: 2.92 GB
Subtitulos: Español Latino (.SUB) - Ingles (.SUB) Duracion: 01:26:23 Min Capitulos:
  • No hay video embed hola

General
Complete name : Fun Size (2012) FULL 1080p Latino-Ingles [WwW.CinemaniaHD.org].mkv
Format : Matroska
Format version : Version 2
File size : 2.92 GiB
Duration : 1h 26mn
Overall bit rate : 4 842 Kbps
Movie name : Fun Size (2012) FULL 1080p Latino-Ingles [WwW.CinemaniaHD.org]
Encoded date : UTC 2014-12-30 22:50:39
Writing application : mkvmerge v5.7.0 ('The Whirlwind') built on Jul 8 2012 20:08:51
Writing library : libebml v1.2.3 + libmatroska v1.3.0

Video
ID : 1
Format : AVC
Format/Info : Advanced Video Codec
Format profile : High@L4.1
Format settings, CABAC : Yes
Format settings, ReFrames : 2 frames
Muxing mode : Header stripping
Codec ID : V_MPEG4/ISO/AVC
Duration : 1h 26mn
Bit rate : 3 850 Kbps
Width : 1 920 pixels
Height : 1 080 pixels
Display aspect ratio : 16:9
Frame rate mode : Constant
Frame rate : 23.976 fps
Color space : YUV
Chroma subsampling : 4:2:0
Bit depth : 8 bits
Scan type : Progressive
Bits/(Pixel*Frame) : 0.077
Stream size : 2.32 GiB (80%)
Title : [WwW.CinemaniaHD.org]
Writing library : x264 core
Default : Yes
Forced : No
Color primaries : BT.709
Transfer characteristics : BT.709
Matrix coefficients : BT.709

Audio #1
ID : 2
Format : AC-3
Format/Info : Audio Coding 3
Mode extension : CM (complete main)
Format settings, Endianness : Big
Muxing mode : Header stripping
Codec ID : A_AC3
Duration : 1h 26mn
Bit rate mode : Constant
Bit rate : 448 Kbps
Channel count : 6 channels
Channel positions : Front: L C R, Side: L R, LFE
Sampling rate : 48.0 KHz
Bit depth : 16 bits
Compression mode : Lossy
Stream size : 277 MiB (9%)
Title : Audio Latino [WwW.CinemaniaHD.org]
Language : Spanish
Default : Yes
Forced : No

Audio #2
ID : 3
Format : AC-3
Format/Info : Audio Coding 3
Mode extension : CM (complete main)
Format settings, Endianness : Big
Muxing mode : Header stripping
Codec ID : A_AC3
Duration : 1h 26mn
Bit rate mode : Constant
Bit rate : 448 Kbps
Channel count : 6 channels
Channel positions : Front: L C R, Side: L R, LFE
Sampling rate : 48.0 KHz
Bit depth : 16 bits
Compression mode : Lossy
Stream size : 277 MiB (9%)
Title : Audio Ingles [WwW.CinemaniaHD.org]
Language : English
Default : No
Forced : No

Text #1
ID : 4
Format : VobSub
Muxing mode : zlib
Codec ID : S_VOBSUB
Codec ID/Info : The same subtitle format used on DVDs
Title : Subtitulos Ingles [WwW.CinemaniaHD.org]
Language : English
Default : No
Forced : No

Text #2
ID : 5
Format : VobSub
Muxing mode : zlib
Codec ID : S_VOBSUB
Codec ID/Info : The same subtitle format used on DVDs
Title : Subtitulos Latino [WwW.CinemaniaHD.org]
Language : Spanish
Default : No
Forced : No

Text #3
ID : 6
Format : UTF-8
Codec ID : S_TEXT/UTF8
Codec ID/Info : UTF-8 Plain Text
Title : [WwW.CinemaniaHD.org]
Default : Yes
Forced : No

Download Links

CONTRASEÑA PARA DESCOMPRIMIR

APORTES NUEVOS

cinemaniahdd.com

APORTES VIEJOS

CinemaniaHD.org

COMPRA O RENUEVA TU PREMIUM DE UPLOADED DESDE EL SIGUIENTE LINK:

http://ul.to/ref/9821430

SI GUSTAS PUEDES SEGUIRNOS EN LAS REDES SOCIALES

Facebook

Twitter

Post Relacionados