Actualmente tenemos 4572 para descargar peliculas gratis 1080p latino

Enealogía: A Nightmare on Elm Street (1984-2010) FULL 1080p Latino-Ingles

Titulo Original: A Nightmare on Elm Street

1080p | 1920×1080 | MKV | H.264 | Encoder byK40s | 2.18 GB | 1:31:13 min | Audio: Ingles (AC3 5.1 BD)  | Subtitulo: Español Latino (.SUB) - Ingles (.SUB) | Terror | 1984 | 5% Registro de Recuperación (Reparar archivos rar)

[spoiler]

Format : Matroska
Format version : Version 4 / Version 2
File size : 2.18 GiB
Duration : 1h 31mn
Overall bit rate : 3 429 Kbps
Movie name : A Nightmare on Elm Street (1984) FULL 1080p Subtitulada [WwW.CinemaniaHD.org]
Encoded date : UTC 2014-04-27 12:00:29
Writing application : mkvmerge v6.5.0 ('Isn't she lovely') built on Oct 20 2013 12:50:05
Writing library : libebml v1.3.0 + libmatroska v1.4.1

Video
ID : 1
Format : AVC
Format/Info : Advanced Video Codec
Format profile : High@L4.1
Format settings, CABAC : Yes
Format settings, ReFrames : 2 frames
Codec ID : V_MPEG4/ISO/AVC
Duration : 1h 31mn
Bit rate : 2 913 Kbps
Width : 1 920 pixels
Height : 1 080 pixels
Display aspect ratio : 16:9
Frame rate mode : Constant
Frame rate : 23.976 fps
Color space : YUV
Chroma subsampling : 4:2:0
Bit depth : 8 bits
Scan type : Progressive
Bits/(Pixel*Frame) : 0.059
Stream size : 1.86 GiB (85%)
Title : WwW.CinemaniaHD.org
Writing library : x264 core
Default : Yes
Forced : No
Color primaries : BT.709
Transfer characteristics : BT.709
Matrix coefficients : BT.709

Audio
ID : 2
Format : AC-3
Format/Info : Audio Coding 3
Mode extension : CM (complete main)
Format settings, Endianness : Big
Codec ID : A_AC3
Duration : 1h 31mn
Bit rate mode : Constant
Bit rate : 448 Kbps
Channel count : 6 channels
Channel positions : Front: L C R, Side: L R, LFE
Sampling rate : 48.0 KHz
Bit depth : 16 bits
Compression mode : Lossy
Stream size : 292 MiB (13%)
Title : Audio Ingles [WwW.CinemaniaHD.org]
Language : English
Default : Yes
Forced : No

Text #1
ID : 3
Format : VobSub
Muxing mode : zlib
Codec ID : S_VOBSUB
Codec ID/Info : The same subtitle format used on DVDs
Title : Subtitulos Latino [WwW.CinemaniaHD.org]
Language : Spanish
Default : Yes
Forced : No

Text #2
ID : 4
Format : VobSub
Muxing mode : zlib
Codec ID : S_VOBSUB
Codec ID/Info : The same subtitle format used on DVDs
Title : Subtitulos Ingles [WwW.CinemaniaHD.org]
Language : English
Default : No
Forced : No

Menu
00:00:00.000 : en:(01)00:00:00:000
00:03:35.590 : en:(02)00:03:35:590
00:05:51.434 : en:(03)00:05:51:434
00:08:10.990 : en:(04)00:08:10:990
00:10:44.018 : en:(05)00:10:44:018
00:14:48.053 : en:(06)00:14:48:053
00:18:26.688 : en:(07)00:18:26:688
00:20:27.643 : en:(08)00:20:27:643
00:23:06.343 : en:(09)00:23:06:343
00:29:27.432 : en:(10)00:29:27:432
00:31:39.856 : en:(11)00:31:39:856
00:34:22.894 : en:(12)00:34:22:894
00:37:03.387 : en:(13)00:37:03:387
00:43:13.424 : en:(14)00:43:13:424
00:47:28.971 : en:(15)00:47:28:971
00:51:29.711 : en:(16)00:51:29:711
00:56:19.542 : en:(17)00:56:19:542
00:58:51.528 : en:(18)00:58:51:528
01:02:59.692 : en:(19)01:02:59:692
01:08:02.369 : en:(20)01:08:02:369
01:11:49.513 : en:(21)01:11:49:513
01:15:34.655 : en:(22)01:15:34:655
01:21:04.693 : en:(23)01:21:04:693
01:25:26.037 : en:(24)01:25:26:037
01:29:06.591 : en:(25)01:29:06:591
01:31:14.010 : en:(26)01:31:14:010

 

[/spoiler]

Varios jóvenes de una pequeña localidad tienen habitualmente pesadillas en las que son perseguidos por un hombre deformado por el fuego y que usa un guante terminado en afiladas cuchillas. Algunos de ellos comienzan a ser asesinados mientras duermen por este ser, que resulta ser un asesino al que los padres de estos jóvenes quemaron vivo hace varios años tras descubrir que había asesinado a varios niños.

http://www.youtube.com/watch?v=rZx62f1yLZo

Links Intercambiables

 

Publicos

 


 

COMPRA TU CUENTA PREMIUM PARA DESCARGA A MAXIMA VELOCIDAD DESDE LOS SIGUIENTES ENLACES:

UPLOADED.TO >>> CLICK AQUI

FILEPARADOX >>> CLICK AQUI

FREAKSHARE >>> CLICK AQUI

 

Titulo Original: A Nightmare on Elm Street 2: Freddy's Revenge

1080p | 1920×1080 | MKV | H.264 | Encoder byK40s | 1.93 GB | 1:25 :36 min | Audio: Español Latino (AC3 1.0 BD) - Ingles (AC3 1.0 BD)  | Subtitulo: Español Latino (.SUB) - Ingles (.SUB) | Terror | 1985 | 5% Registro de Recuperación (Reparar archivos rar)

[spoiler]

Format : Matroska
Format version : Version 4 / Version 2
File size : 1.93 GiB
Duration : 1h 25mn
Overall bit rate : 3 230 Kbps
Movie name : A Nightmare on Elm Street 2 Freddy's Revenge (1985) FULL 1080p [WwW.CinemaniaHD.org]
Encoded date : UTC 2014-04-27 12:16:24
Writing application : mkvmerge v6.5.0 ('Isn't she lovely') built on Oct 20 2013 12:50:05
Writing library : libebml v1.3.0 + libmatroska v1.4.1

Video
ID : 1
Format : AVC
Format/Info : Advanced Video Codec
Format profile : High@L4.1
Format settings, CABAC : Yes
Format settings, ReFrames : 2 frames
Codec ID : V_MPEG4/ISO/AVC
Duration : 1h 25mn
Bit rate : 2 909 Kbps
Width : 1 920 pixels
Height : 1 080 pixels
Display aspect ratio : 16:9
Frame rate mode : Constant
Frame rate : 23.976 fps
Color space : YUV
Chroma subsampling : 4:2:0
Bit depth : 8 bits
Scan type : Progressive
Bits/(Pixel*Frame) : 0.059
Stream size : 1.74 GiB (90%)
Title : WwW.CinemaniaHD.org
Writing library : x264 core
Default : Yes
Forced : No
Color primaries : BT.709
Transfer characteristics : BT.709
Matrix coefficients : BT.709

Audio #1
ID : 2
Format : AC-3
Format/Info : Audio Coding 3
Mode extension : CM (complete main)
Format settings, Endianness : Big
Codec ID : A_AC3
Duration : 1h 25mn
Bit rate mode : Constant
Bit rate : 128 Kbps
Channel count : 1 channel
Channel positions : Front: C
Sampling rate : 48.0 KHz
Bit depth : 16 bits
Compression mode : Lossy
Stream size : 78.4 MiB (4%)
Title : Audio Latino [WwW.CinemaniaHD.org]
Language : Spanish
Default : Yes
Forced : No

Audio #2
ID : 3
Format : AC-3
Format/Info : Audio Coding 3
Mode extension : CM (complete main)
Format settings, Endianness : Big
Codec ID : A_AC3
Duration : 1h 25mn
Bit rate mode : Constant
Bit rate : 128 Kbps
Channel count : 1 channel
Channel positions : Front: C
Sampling rate : 48.0 KHz
Bit depth : 16 bits
Compression mode : Lossy
Stream size : 78.4 MiB (4%)
Title : Audio Ingles [WwW.CinemaniaHD.org]
Language : English
Default : No
Forced : No

Text #1
ID : 4
Format : UTF-8
Codec ID : S_TEXT/UTF8
Codec ID/Info : UTF-8 Plain Text
Title : WwW.CinemaniaHD.org
Default : Yes
Forced : No

Text #2
ID : 5
Format : VobSub
Muxing mode : zlib
Codec ID : S_VOBSUB
Codec ID/Info : The same subtitle format used on DVDs
Title : Subtitulos Latino [WwW.CinemaniaHD.org]
Language : Spanish
Default : No
Forced : No

Text #3
ID : 6
Format : VobSub
Muxing mode : zlib
Codec ID : S_VOBSUB
Codec ID/Info : The same subtitle format used on DVDs
Title : Subtitulos Ingles [WwW.CinemaniaHD.org]
Language : English
Default : No
Forced : No

Menu
00:00:00.000 : en:(01)00:00:00:000
00:06:42.777 : en:(02)00:06:42:777
00:08:30.259 : en:(03)00:08:30:259
00:12:03.931 : en:(04)00:12:03:931
00:16:01.835 : en:(05)00:16:01:835
00:18:02.414 : en:(06)00:18:02:414
00:23:02.672 : en:(07)00:23:02:672
00:26:25.750 : en:(08)00:26:25:750
00:27:58.259 : en:(09)00:27:58:259
00:30:40.505 : en:(10)00:30:40:505
00:33:11.489 : en:(11)00:33:11:489
00:37:27.453 : en:(12)00:37:27:453
00:40:01.440 : en:(13)00:40:01:440
00:42:59.618 : en:(14)00:42:59:618
00:46:07.389 : en:(15)00:46:07:389
00:49:09.571 : en:(16)00:49:09:571
00:54:03.531 : en:(17)00:54:03:531
00:57:33.450 : en:(18)00:57:33:450
01:01:30.520 : en:(19)01:01:30:520
01:04:21.732 : en:(20)01:04:21:732
01:08:07.666 : en:(21)01:08:07:666
01:11:15.604 : en:(22)01:11:15:604
01:14:57.576 : en:(23)01:14:57:576
01:17:30.145 : en:(24)01:17:30:145
01:20:32.410 : en:(25)01:20:32:410
01:22:49.965 : en:(26)01:22:49:965
01:25:36.923 : en:(27)01:25:36:923

 

[/spoiler]

Una familia llega a una casa en la que cinco años antes se habían cometido varios crímenes. Poco después, el hijo comienza a tener unas horribles pesadillas que le empujan al asesinato.

http://www.youtube.com/watch?v=yv4AFuOY9y4

Links Intercambiables

 

Publicos

 


 

COMPRA TU CUENTA PREMIUM PARA DESCARGA A MAXIMA VELOCIDAD DESDE LOS SIGUIENTES ENLACES:

UPLOADED.TO >>> CLICK AQUI

FILEPARADOX >>> CLICK AQUI

FREAKSHARE >>> CLICK AQUI

 

 

Titulo Original: A Nightmare on Elm Street 3: Dream Warriors

1080p | 1920×1080 | MKV | H.264 | Encoder byK40s | 2.59 GB | 1:36:30 min | Audio: Español Latino (AC3 1.0 BD) - Ingles (AC3 5.1 BD)  | Subtitulo: Español Latino (.SUB) - Ingles (.SUB) | Terror. Thriller | 1987 | 5% Registro de Recuperación (Reparar archivos rar)

[spoiler]

Format : Matroska
Format version : Version 4 / Version 2
File size : 2.59 GiB
Duration : 1h 36mn
Overall bit rate : 3 835 Kbps
Movie name : A Nightmare on Elm Street 3 Dream Warriors (1987) FULL 1080p [WwW.CinemaniaHD.org]
Encoded date : UTC 2014-04-27 12:29:04
Writing application : mkvmerge v6.5.0 ('Isn't she lovely') built on Oct 20 2013 12:50:05
Writing library : libebml v1.3.0 + libmatroska v1.4.1

Video
ID : 1
Format : AVC
Format/Info : Advanced Video Codec
Format profile : High@L4.1
Format settings, CABAC : Yes
Format settings, ReFrames : 2 frames
Codec ID : V_MPEG4/ISO/AVC
Duration : 1h 36mn
Bit rate : 2 862 Kbps
Width : 1 920 pixels
Height : 1 080 pixels
Display aspect ratio : 16:9
Frame rate mode : Constant
Frame rate : 23.976 fps
Color space : YUV
Chroma subsampling : 4:2:0
Bit depth : 8 bits
Scan type : Progressive
Bits/(Pixel*Frame) : 0.058
Stream size : 1.93 GiB (75%)
Title : WwW.CinemaniaHD.org
Writing library : x264 core
Default : Yes
Forced : No
Color primaries : BT.709
Transfer characteristics : BT.709
Matrix coefficients : BT.709

Audio #1
ID : 2
Format : AC-3
Format/Info : Audio Coding 3
Mode extension : CM (complete main)
Format settings, Endianness : Big
Codec ID : A_AC3
Duration : 1h 36mn
Bit rate mode : Constant
Bit rate : 448 Kbps
Channel count : 1 channel
Channel positions : Front: C
Sampling rate : 48.0 KHz
Bit depth : 16 bits
Compression mode : Lossy
Stream size : 309 MiB (12%)
Title : Audio Latino [WwW.CinemaniaHD.org]
Language : Spanish
Default : Yes
Forced : No

Audio #2
ID : 3
Format : AC-3
Format/Info : Audio Coding 3
Mode extension : CM (complete main)
Format settings, Endianness : Big
Codec ID : A_AC3
Duration : 1h 36mn
Bit rate mode : Constant
Bit rate : 448 Kbps
Channel count : 6 channels
Channel positions : Front: L C R, Side: L R, LFE
Sampling rate : 48.0 KHz
Bit depth : 16 bits
Compression mode : Lossy
Stream size : 309 MiB (12%)
Title : Audio Ingles [WwW.CinemaniaHD.org]
Language : English
Default : No
Forced : No

Text #1
ID : 4
Format : UTF-8
Codec ID : S_TEXT/UTF8
Codec ID/Info : UTF-8 Plain Text
Title : WwW.CinemaniaHD.org
Default : Yes
Forced : No

Text #2
ID : 5
Format : VobSub
Muxing mode : zlib
Codec ID : S_VOBSUB
Codec ID/Info : The same subtitle format used on DVDs
Title : Subtitulos Latino [WwW.CinemaniaHD.org]
Language : Spanish
Default : No
Forced : No

Text #3
ID : 6
Format : VobSub
Muxing mode : zlib
Codec ID : S_VOBSUB
Codec ID/Info : The same subtitle format used on DVDs
Title : Subtitulos Ingles [WwW.CinemaniaHD.org]
Language : English
Default : No
Forced : No

Menu
00:00:00.000 : en:(01)00:00:00:000
00:03:21.868 : en:(02)00:03:21:868
00:04:12.126 : en:(03)00:04:12:126
00:08:31.093 : en:(04)00:08:31:093
00:09:31.612 : en:(05)00:09:31:612
00:14:37.501 : en:(06)00:14:37:501
00:18:49.878 : en:(07)00:18:49:878
00:22:50.744 : en:(08)00:22:50:744
00:25:53.927 : en:(09)00:25:53:927
00:29:25.430 : en:(10)00:29:25:430
00:32:41.709 : en:(11)00:32:41:709
00:35:38.803 : en:(12)00:35:38:803
00:38:42.570 : en:(13)00:38:42:570
00:40:16.622 : en:(14)00:40:16:622
00:42:05.523 : en:(15)00:42:05:523
00:47:44.444 : en:(16)00:47:44:444
00:50:46.043 : en:(17)00:50:46:043
00:54:43.280 : en:(18)00:54:43:280
00:59:10.922 : en:(19)00:59:10:922
01:02:54.353 : en:(20)01:02:54:353
01:06:19.392 : en:(21)01:06:19:392
01:10:41.487 : en:(22)01:10:41:487
01:12:51.492 : en:(23)01:12:51:492
01:14:56.909 : en:(24)01:14:56:909
01:16:50.981 : en:(25)01:16:50:981
01:18:58.734 : en:(26)01:18:58:734
01:21:10.866 : en:(27)01:21:10:866
01:24:17.135 : en:(28)01:24:17:135
01:26:37.400 : en:(29)01:26:37:400
01:30:57.326 : en:(30)01:30:57:326
01:32:32.296 : en:(31)01:32:32:296
01:36:31.577 : en:(32)01:36:31:577

 

[/spoiler]

Años después de los incidentes en El St. Nancy se ha convertido en una psiquiatra especializada en terapia del sueño, pero Freddy también sigue en activo, y comienza a parecerse en los sueños de varios de ellos. Nancy los reúne a todos en busca de una forma de parar al monstruo. Para ello, los pacientes aprenden a desarrollar habilidades especiales en su sueños. Alguno puede ser un mago, otro un superforzudo, un maestro en artes marciales...

http://www.youtube.com/watch?v=8PlwfVhY_-Q

Links Intercambiables

 

Publicos

 


 

COMPRA TU CUENTA PREMIUM PARA DESCARGA A MAXIMA VELOCIDAD DESDE LOS SIGUIENTES ENLACES:

UPLOADED.TO >>> CLICK AQUI

FILEPARADOX >>> CLICK AQUI

FREAKSHARE >>> CLICK AQUI

 

Titulo Original: A Nightmare on Elm Street 4: The Dream Master

1080p | 1920×1080 | MKV | H.264 | Encoder byK40s | 2.51 GB | 1:33:14 min | Audio: Español Latino (AC3 1.0 BD) - Ingles (AC3 5.1 BD)  | Subtitulo: Español Latino (.SUB) - Ingles (.SUB) | Terror. Thriller | 1988 | 5% Registro de Recuperación (Reparar archivos rar)

[spoiler]

Format : Matroska
Format version : Version 4 / Version 2
File size : 2.51 GiB
Duration : 1h 33mn
Overall bit rate : 3 860 Kbps
Movie name : A Nightmare on Elm Street 4: The Dream Master (1988) FULL 1080p [WwW.CinemaniaHD.org]
Encoded date : UTC 2014-04-27 20:48:23
Writing application : mkvmerge v6.5.0 ('Isn't she lovely') built on Oct 20 2013 12:50:05
Writing library : libebml v1.3.0 + libmatroska v1.4.1

Video
ID : 1
Format : AVC
Format/Info : Advanced Video Codec
Format profile : High@L4.1
Format settings, CABAC : Yes
Format settings, ReFrames : 2 frames
Codec ID : V_MPEG4/ISO/AVC
Duration : 1h 33mn
Bit rate : 2 887 Kbps
Width : 1 920 pixels
Height : 1 080 pixels
Display aspect ratio : 16:9
Frame rate mode : Constant
Frame rate : 23.976 fps
Color space : YUV
Chroma subsampling : 4:2:0
Bit depth : 8 bits
Scan type : Progressive
Bits/(Pixel*Frame) : 0.058
Stream size : 1.88 GiB (75%)
Title : WwW.CinemaniaHD.org
Writing library : x264 core
Default : Yes
Forced : No
Color primaries : BT.709
Transfer characteristics : BT.709
Matrix coefficients : BT.709

Audio #1
ID : 2
Format : AC-3
Format/Info : Audio Coding 3
Mode extension : CM (complete main)
Format settings, Endianness : Big
Codec ID : A_AC3
Duration : 1h 33mn
Bit rate mode : Constant
Bit rate : 448 Kbps
Channel count : 1 channel
Channel positions : Front: C
Sampling rate : 48.0 KHz
Bit depth : 16 bits
Compression mode : Lossy
Stream size : 299 MiB (12%)
Title : Audio Latino [WwW.CinemaniaHD.org]
Language : Spanish
Default : Yes
Forced : No

Audio #2
ID : 3
Format : AC-3
Format/Info : Audio Coding 3
Mode extension : CM (complete main)
Format settings, Endianness : Big
Codec ID : A_AC3
Duration : 1h 33mn
Bit rate mode : Constant
Bit rate : 448 Kbps
Channel count : 6 channels
Channel positions : Front: L C R, Side: L R, LFE
Sampling rate : 48.0 KHz
Bit depth : 16 bits
Compression mode : Lossy
Stream size : 299 MiB (12%)
Title : Audio Ingles [WwW.CinemaniaHD.org]
Language : English
Default : No
Forced : No

Text #1
ID : 4
Format : UTF-8
Codec ID : S_TEXT/UTF8
Codec ID/Info : UTF-8 Plain Text
Title : WwW.CinemaniaHD.org
Default : Yes
Forced : No

Text #2
ID : 5
Format : VobSub
Muxing mode : zlib
Codec ID : S_VOBSUB
Codec ID/Info : The same subtitle format used on DVDs
Title : Subtitulos Latino [WwW.CinemaniaHD.org]
Language : Spanish
Default : No
Forced : No

Text #3
ID : 6
Format : VobSub
Muxing mode : zlib
Codec ID : S_VOBSUB
Codec ID/Info : The same subtitle format used on DVDs
Title : Subtitulos Ingles [WwW.CinemaniaHD.org]
Language : English
Default : No
Forced : No

Menu
00:00:00.000 : en:(01)00:00:00:000
00:04:57.297 : en:(02)00:04:57:297
00:07:20.731 : en:(03)00:07:20:731
00:12:11.188 : en:(04)00:12:11:188
00:15:29.386 : en:(05)00:15:29:386
00:20:33.815 : en:(06)00:20:33:815
00:23:06.009 : en:(07)00:23:06:009
00:25:09.174 : en:(08)00:25:09:174
00:28:01.012 : en:(09)00:28:01:012
00:30:48.763 : en:(10)00:30:48:763
00:32:55.598 : en:(11)00:32:55:598
00:35:07.438 : en:(12)00:35:07:438
00:39:39.919 : en:(13)00:39:39:919
00:43:26.103 : en:(14)00:43:26:103
00:46:58.607 : en:(15)00:46:58:607
00:53:03.346 : en:(16)00:53:03:346
00:55:31.286 : en:(17)00:55:31:286
00:58:28.922 : en:(18)00:58:28:922
01:02:06.514 : en:(19)01:02:06:514
01:05:02.982 : en:(20)01:05:02:982
01:07:36.177 : en:(21)01:07:36:177
01:11:54.143 : en:(22)01:11:54:143
01:14:30.466 : en:(23)01:14:30:466
01:19:13.248 : en:(24)01:19:13:248
01:22:28.360 : en:(25)01:22:28:360
01:25:53.148 : en:(26)01:25:53:148
01:27:00.798 : en:(27)01:27:00:798
01:33:14.880 : en:(28)01:33:14:880

 

[/spoiler]

Freddy Krueger vuelve a la vida después de su aparente muerte en la entrega anterior y comienza a matar a los chicos que viven en Elm Street. Pero, Kristen, capaz de atraer a los demás dentro de sus sueños, le concede este poder especial a su amiga Alice. Sin embargo, ésta se da cuenta de que Freddy está sacando partido a este extraño poder...

http://www.youtube.com/watch?v=uuu_-PIYuvI

Links Intercambiables

 

Publicos

 


 

COMPRA TU CUENTA PREMIUM PARA DESCARGA A MAXIMA VELOCIDAD DESDE LOS SIGUIENTES ENLACES:

UPLOADED.TO >>> CLICK AQUI

FILEPARADOX >>> CLICK AQUI

FREAKSHARE >>> CLICK AQUI

 

Titulo Original: A Nightmare on Elm Street 5: The Dream Child

1080p | 1920×1080 | MKV | H.264 | Encoder byK40s | 2.42 GB | 1:29:37 min | Audio: Español Latino (AC3 1.0 BD) - Ingles (AC3 5.1 BD)  | Subtitulo: Español Latino (.SUB) - Ingles (.SUB) | Terror. Thriller | 1989 | 5% Registro de Recuperación (Reparar archivos rar)

[spoiler]

Format : Matroska
Format version : Version 4 / Version 2
File size : 2.42 GiB
Duration : 1h 29mn
Overall bit rate : 3 871 Kbps
Movie name : A Nightmare on Elm Street 5: The Dream Child (1989) [WwW.CinemaniaHD.org]
Encoded date : UTC 2014-04-27 20:43:54
Writing application : mkvmerge v6.5.0 ('Isn't she lovely') built on Oct 20 2013 12:50:05
Writing library : libebml v1.3.0 + libmatroska v1.4.1

Video
ID : 1
Format : AVC
Format/Info : Advanced Video Codec
Format profile : High@L4.1
Format settings, CABAC : Yes
Format settings, ReFrames : 2 frames
Codec ID : V_MPEG4/ISO/AVC
Duration : 1h 29mn
Bit rate : 2 898 Kbps
Width : 1 920 pixels
Height : 1 080 pixels
Display aspect ratio : 16:9
Frame rate mode : Constant
Frame rate : 23.976 fps
Color space : YUV
Chroma subsampling : 4:2:0
Bit depth : 8 bits
Scan type : Progressive
Bits/(Pixel*Frame) : 0.058
Stream size : 1.81 GiB (75%)
Title : WwW.CinemaniaHD.org
Writing library : x264 core
Default : Yes
Forced : No
Color primaries : BT.709
Transfer characteristics : BT.709
Matrix coefficients : BT.709

Audio #1
ID : 2
Format : AC-3
Format/Info : Audio Coding 3
Mode extension : CM (complete main)
Format settings, Endianness : Big
Codec ID : A_AC3
Duration : 1h 29mn
Bit rate mode : Constant
Bit rate : 448 Kbps
Channel count : 1 channel
Channel positions : Front: C
Sampling rate : 48.0 KHz
Bit depth : 16 bits
Compression mode : Lossy
Stream size : 287 MiB (12%)
Title : Audio Latino [WwW.CinemaniaHD.org]
Language : Spanish
Default : Yes
Forced : No

Audio #2
ID : 3
Format : AC-3
Format/Info : Audio Coding 3
Mode extension : CM (complete main)
Format settings, Endianness : Big
Codec ID : A_AC3
Duration : 1h 29mn
Bit rate mode : Constant
Bit rate : 448 Kbps
Channel count : 6 channels
Channel positions : Front: L C R, Side: L R, LFE
Sampling rate : 48.0 KHz
Bit depth : 16 bits
Compression mode : Lossy
Stream size : 287 MiB (12%)
Title : Audio Ingles [WwW.CinemaniaHD.org]
Language : English
Default : No
Forced : No

Text #1
ID : 4
Format : UTF-8
Codec ID : S_TEXT/UTF8
Codec ID/Info : UTF-8 Plain Text
Title : WwW.CinemaniaHD.org
Default : Yes
Forced : No

Text #2
ID : 5
Format : VobSub
Muxing mode : zlib
Codec ID : S_VOBSUB
Codec ID/Info : The same subtitle format used on DVDs
Title : Subtitulos Latino [WwW.CinemaniaHD.org]
Language : Spanish
Default : No
Forced : No

Text #3
ID : 6
Format : VobSub
Muxing mode : zlib
Codec ID : S_VOBSUB
Codec ID/Info : The same subtitle format used on DVDs
Title : Subtitulos Ingles [WwW.CinemaniaHD.org]
Language : English
Default : No
Forced : No

Menu
00:00:00.000 : en:(01)00:00:00:000
00:03:24.037 : en:(02)00:03:24:037
00:08:21.834 : en:(03)00:08:21:834
00:12:50.811 : en:(04)00:12:50:811
00:16:34.118 : en:(05)00:16:34:118
00:22:57.667 : en:(06)00:22:57:667
00:27:37.238 : en:(07)00:27:37:238
00:30:17.899 : en:(08)00:30:17:899
00:35:19.534 : en:(09)00:35:19:534
00:38:21.590 : en:(10)00:38:21:590
00:41:58.432 : en:(11)00:41:58:432
00:44:50.771 : en:(12)00:44:50:771
00:49:40.852 : en:(13)00:49:40:852
00:53:36.713 : en:(14)00:53:36:713
00:58:30.965 : en:(15)00:58:30:965
01:00:41.721 : en:(16)01:00:41:721
01:04:53.764 : en:(17)01:04:53:764
01:09:32.168 : en:(18)01:09:32:168
01:12:02.818 : en:(19)01:12:02:818
01:15:42.955 : en:(20)01:15:42:955
01:19:08.618 : en:(21)01:19:08:618
01:23:22.414 : en:(22)01:23:22:414
01:24:20.305 : en:(23)01:24:20:305
01:29:38.164 : en:(24)01:29:38:164

 

[/spoiler]

Alice y Dan viven felices tras haber acabado con Freddy. Las pesadillas han terminado y Alice espera plácidamente que nazca su bebé. Sin embargo, Freddy planea apoderarse del alma del hijo que espera Alice...

http://www.youtube.com/watch?v=K81Um6WOwh0

Links Intercambiables

 

Publicos

 


 

COMPRA TU CUENTA PREMIUM PARA DESCARGA A MAXIMA VELOCIDAD DESDE LOS SIGUIENTES ENLACES:

UPLOADED.TO >>> CLICK AQUI

FILEPARADOX >>> CLICK AQUI

FREAKSHARE >>> CLICK AQUI

 

Titulo Original: Freddy's Dead: The Final Nightmare

1080p | 1920×1080 | MKV | H.264 | Encoder byK40s | 2.41 GB | 1:29:12 min | Audio: Español Latino (AC3 5.1 BD) - Ingles (AC3 5.1 BD)  | Subtitulo: Español Latino (.SUB) - Ingles (.SUB) | Comedia. Terror. Thriller | 1991 | 5% Registro de Recuperación (Reparar archivos rar)

[spoiler]

Format : Matroska
Format version : Version 4 / Version 2
File size : 2.41 GiB
Duration : 1h 29mn
Overall bit rate : 3 870 Kbps
Movie name : Freddy's Dead: The Final Nightmare (1991) FULL 1080p [WwW.CinemaniaHD.org]
Encoded date : UTC 2014-04-28 23:19:07
Writing application : mkvmerge v6.5.0 ('Isn't she lovely') built on Oct 20 2013 12:50:05
Writing library : libebml v1.3.0 + libmatroska v1.4.1

Video
ID : 1
Format : AVC
Format/Info : Advanced Video Codec
Format profile : High@L4.1
Format settings, CABAC : Yes
Format settings, ReFrames : 2 frames
Codec ID : V_MPEG4/ISO/AVC
Duration : 1h 29mn
Bit rate : 2 897 Kbps
Width : 1 920 pixels
Height : 1 080 pixels
Display aspect ratio : 16:9
Frame rate mode : Constant
Frame rate : 23.976 fps
Color space : YUV
Chroma subsampling : 4:2:0
Bit depth : 8 bits
Scan type : Progressive
Bits/(Pixel*Frame) : 0.058
Stream size : 1.81 GiB (75%)
Title : WwW.CinemaniaHD.org
Writing library : x264 core
Default : Yes
Forced : No
Color primaries : BT.709
Transfer characteristics : BT.709
Matrix coefficients : BT.709

Audio #1
ID : 2
Format : AC-3
Format/Info : Audio Coding 3
Mode extension : CM (complete main)
Format settings, Endianness : Big
Codec ID : A_AC3
Duration : 1h 29mn
Bit rate mode : Constant
Bit rate : 448 Kbps
Channel count : 6 channels
Channel positions : Front: L C R, Side: L R, LFE
Sampling rate : 48.0 KHz
Bit depth : 16 bits
Compression mode : Lossy
Stream size : 286 MiB (12%)
Title : Audio Latino [WwW.CinemaniaHD.org]
Language : Spanish
Default : Yes
Forced : No

Audio #2
ID : 3
Format : AC-3
Format/Info : Audio Coding 3
Mode extension : CM (complete main)
Format settings, Endianness : Big
Codec ID : A_AC3
Duration : 1h 29mn
Bit rate mode : Constant
Bit rate : 448 Kbps
Channel count : 6 channels
Channel positions : Front: L C R, Side: L R, LFE
Sampling rate : 48.0 KHz
Bit depth : 16 bits
Compression mode : Lossy
Stream size : 286 MiB (12%)
Title : Audio Ingles [WwW.CinemaniaHD.org]
Language : English
Default : No
Forced : No

Text #1
ID : 4
Format : UTF-8
Codec ID : S_TEXT/UTF8
Codec ID/Info : UTF-8 Plain Text
Title : WwW.CinemaniaHD.org
Default : Yes
Forced : No

Text #2
ID : 5
Format : VobSub
Muxing mode : zlib
Codec ID : S_VOBSUB
Codec ID/Info : The same subtitle format used on DVDs
Title : Subtitulos Latino [WwW.CinemaniaHD.org]
Language : Spanish
Default : No
Forced : No

Text #3
ID : 6
Format : VobSub
Muxing mode : zlib
Codec ID : S_VOBSUB
Codec ID/Info : The same subtitle format used on DVDs
Title : Subtitulos Ingles [WwW.CinemaniaHD.org]
Language : English
Default : No
Forced : No

Menu
00:00:00.000 : en:(01)00:00:00:000
00:04:45.285 : en:(02)00:04:45:285
00:08:23.503 : en:(03)00:08:23:503
00:12:56.776 : en:(04)00:12:56:776
00:14:31.203 : en:(05)00:14:31:203
00:15:43.108 : en:(06)00:15:43:108
00:19:00.848 : en:(07)00:19:00:848
00:20:25.557 : en:(08)00:20:25:557
00:24:34.973 : en:(09)00:24:34:973
00:29:40.153 : en:(10)00:29:40:153
00:31:46.321 : en:(11)00:31:46:321
00:39:35.039 : en:(12)00:39:35:039
00:42:09.276 : en:(13)00:42:09:276
00:46:23.906 : en:(14)00:46:23:906
00:49:28.048 : en:(15)00:49:28:048
00:54:46.491 : en:(16)00:54:46:491
00:58:12.322 : en:(17)00:58:12:322
01:02:32.915 : en:(18)01:02:32:915
01:05:41.395 : en:(19)01:05:41:395
01:08:32.900 : en:(20)01:08:32:900
01:10:37.650 : en:(21)01:10:37:650
01:17:34.107 : en:(22)01:17:34:107
01:24:27.562 : en:(23)01:24:27:562
01:29:12.138 : en:(24)01:29:12:138

 

[/spoiler]

Después de diez años, Freddy Krueger vuelve a sembrar el pánico entre los adolescentes de Springwood. Utiliza para su venganza a un joven amnésico que le servirá para revitalizar sus poderes y localizar a su propia hija.

http://www.youtube.com/watch?v=nGQP6PIXzyc

Links Intercambiables

 

Publicos

 


 

COMPRA TU CUENTA PREMIUM PARA DESCARGA A MAXIMA VELOCIDAD DESDE LOS SIGUIENTES ENLACES:

UPLOADED.TO >>> CLICK AQUI

FILEPARADOX >>> CLICK AQUI

FREAKSHARE >>> CLICK AQUI

 

Titulo Original: Wes Craven's New Nightmare

1080p | 1920×1080 | MKV | H.264 | Encoder byK40s | 2.79 GB | 1:52:15 min | Audio: Español Latino (AC3 2.0 DVD) - Ingles (AC3 5.1 BD)  | Subtitulo: Español Latino (.SUB) - Ingles (.SUB) | Fantasia. Terror. Misterio | 1994 | 5% Registro de Recuperación (Reparar archivos rar)

[spoiler]

Format : Matroska
Format version : Version 4 / Version 2
File size : 2.79 GiB
Duration : 1h 52mn
Overall bit rate : 3 564 Kbps
Movie name : Wes Craven's New Nightmare (1994) FULL 1080p [WwW.CinemaniaHD.org]
Encoded date : UTC 2014-04-29 00:17:23
Writing application : mkvmerge v6.5.0 ('Isn't she lovely') built on Oct 20 2013 12:50:05
Writing library : libebml v1.3.0 + libmatroska v1.4.1

Video
ID : 1
Format : AVC
Format/Info : Advanced Video Codec
Format profile : High@L4.1
Format settings, CABAC : Yes
Format settings, ReFrames : 2 frames
Codec ID : V_MPEG4/ISO/AVC
Duration : 1h 52mn
Bit rate : 2 853 Kbps
Width : 1 920 pixels
Height : 1 080 pixels
Display aspect ratio : 16:9
Frame rate mode : Constant
Frame rate : 23.976 fps
Color space : YUV
Chroma subsampling : 4:2:0
Bit depth : 8 bits
Scan type : Progressive
Bits/(Pixel*Frame) : 0.057
Stream size : 2.24 GiB (80%)
Title : WwW.CinemaniaHD.org
Writing library : x264 core
Default : Yes
Forced : No
Color primaries : BT.709
Transfer characteristics : BT.709
Matrix coefficients : BT.709

Audio #1
ID : 2
Format : AC-3
Format/Info : Audio Coding 3
Mode extension : CM (complete main)
Format settings, Endianness : Big
Codec ID : A_AC3
Duration : 1h 52mn
Bit rate mode : Constant
Bit rate : 192 Kbps
Channel count : 2 channels
Channel positions : Front: L R
Sampling rate : 48.0 KHz
Bit depth : 16 bits
Compression mode : Lossy
Delay relative to video : 14ms
Stream size : 154 MiB (5%)
Title : Audio Latino [WwW.CinemaniaHD.org]
Language : Spanish
Default : Yes
Forced : No

Audio #2
ID : 3
Format : AC-3
Format/Info : Audio Coding 3
Mode extension : CM (complete main)
Format settings, Endianness : Big
Codec ID : A_AC3
Duration : 1h 52mn
Bit rate mode : Constant
Bit rate : 448 Kbps
Channel count : 6 channels
Channel positions : Front: L C R, Side: L R, LFE
Sampling rate : 48.0 KHz
Bit depth : 16 bits
Compression mode : Lossy
Stream size : 360 MiB (13%)
Title : Audio Ingles [WwW.CinemaniaHD.org]
Language : English
Default : No
Forced : No

Text #1
ID : 4
Format : UTF-8
Codec ID : S_TEXT/UTF8
Codec ID/Info : UTF-8 Plain Text
Title : WwW.CinemaniaHD.org
Default : Yes
Forced : No

Text #2
ID : 5
Format : VobSub
Muxing mode : zlib
Codec ID : S_VOBSUB
Codec ID/Info : The same subtitle format used on DVDs
Title : Subtitulos Latino [WwW.CinemaniaHD.org]
Language : Spanish
Default : No
Forced : No

Text #3
ID : 6
Format : VobSub
Muxing mode : zlib
Codec ID : S_VOBSUB
Codec ID/Info : The same subtitle format used on DVDs
Title : Subtitulos Ingles [WwW.CinemaniaHD.org]
Language : English
Default : No
Forced : No

Menu
00:00:00.000 : en:(01)00:00:00:000
00:05:46.721 : en:(02)00:05:46:721
00:09:10.633 : en:(03)00:09:10:633
00:11:52.962 : en:(04)00:11:52:962
00:15:12.119 : en:(05)00:15:12:119
00:17:19.079 : en:(06)00:17:19:079
00:21:56.315 : en:(07)00:21:56:315
00:25:44.459 : en:(08)00:25:44:459
00:29:18.631 : en:(09)00:29:18:631
00:32:53.304 : en:(10)00:32:53:304
00:36:00.408 : en:(11)00:36:00:408
00:38:52.330 : en:(12)00:38:52:330
00:43:36.780 : en:(13)00:43:36:780
00:47:20.796 : en:(14)00:47:20:796
00:50:48.628 : en:(15)00:50:48:628
00:55:07.887 : en:(16)00:55:07:887
00:59:20.139 : en:(17)00:59:20:139
01:04:58.978 : en:(18)01:04:58:978
01:08:58.342 : en:(19)01:08:58:342
01:11:52.516 : en:(20)01:11:52:516
01:14:31.216 : en:(21)01:14:31:216
01:16:49.104 : en:(22)01:16:49:104
01:20:10.138 : en:(23)01:20:10:138
01:22:39.204 : en:(24)01:22:39:204
01:25:06.392 : en:(25)01:25:06:392
01:29:11.262 : en:(26)01:29:11:262
01:32:04.268 : en:(27)01:32:04:268
01:42:29.518 : en:(28)01:42:29:518
01:43:53.852 : en:(29)01:43:53:852
01:52:07.512 : en:(30)01:52:07:512

 

[/spoiler]

Wes Craven y Heather Langenkap protagonizan una nueva entrega de "Pesadilla en Elm Street". Heather empezará a soñar con Freddy, como ocurría en las anteriores películas, pero se da cuenta de que un demonio ha adoptado la imagen del asesino para aterrorizar a los miembros del equipo.

http://www.youtube.com/watch?v=TV8za5nWxwo

Links Intercambiables

 

Publicos

 


 

COMPRA TU CUENTA PREMIUM PARA DESCARGA A MAXIMA VELOCIDAD DESDE LOS SIGUIENTES ENLACES:

UPLOADED.TO >>> CLICK AQUI

FILEPARADOX >>> CLICK AQUI

FREAKSHARE >>> CLICK AQUI

 

Titulo Original: Freddy Vs. Jason (AKA A Nightmare on Elm Street VIII and Friday the 13th XI)

1080p | 1920×1080 | MKV | H.264 | Encoder byK40s | 2.62 GB | 1:37:19 min | Audio: Español Latino (AC3 2.0 BD) - Ingles (AC3 5.1 BD)  | Subtitulo: Español Latino (.SUB) - Ingles (.SUB) | Terror. Thriller | 2003 | 5% Registro de Recuperación (Reparar archivos rar)

[spoiler]

Format : Matroska
Format version : Version 4 / Version 2
File size : 2.62 GiB
Duration : 1h 37mn
Overall bit rate : 3 850 Kbps
Movie name : Freddy vs. Jason (2003) FULL 1080p [WwW.CinemaniaHD.org]
Encoded date : UTC 2014-04-28 02:17:48
Writing application : mkvmerge v6.5.0 ('Isn't she lovely') built on Oct 20 2013 12:50:05
Writing library : libebml v1.3.0 + libmatroska v1.4.1

Video
ID : 1
Format : AVC
Format/Info : Advanced Video Codec
Format profile : High@L4.1
Format settings, CABAC : Yes
Format settings, ReFrames : 2 frames
Format settings, GOP : M=3, N=24
Codec ID : V_MPEG4/ISO/AVC
Duration : 1h 37mn
Bit rate : 2 877 Kbps
Width : 1 920 pixels
Height : 1 080 pixels
Display aspect ratio : 16:9
Frame rate mode : Constant
Frame rate : 23.976 fps
Color space : YUV
Chroma subsampling : 4:2:0
Bit depth : 8 bits
Scan type : Progressive
Bits/(Pixel*Frame) : 0.058
Stream size : 1.96 GiB (75%)
Title : WwW.CinemaniaHD.org
Writing library : x264 core
Default : Yes
Forced : No
Color primaries : BT.709
Transfer characteristics : BT.709
Matrix coefficients : BT.709

Audio #1
ID : 2
Format : AC-3
Format/Info : Audio Coding 3
Mode extension : CM (complete main)
Format settings, Endianness : Big
Codec ID : A_AC3
Duration : 1h 37mn
Bit rate mode : Constant
Bit rate : 448 Kbps
Channel count : 2 channels
Channel positions : Front: L R
Sampling rate : 48.0 KHz
Bit depth : 16 bits
Compression mode : Lossy
Stream size : 312 MiB (12%)
Title : Audio Latino [WwW.CinemaniaHD.org]
Language : Spanish
Default : Yes
Forced : No

Audio #2
ID : 3
Format : AC-3
Format/Info : Audio Coding 3
Mode extension : CM (complete main)
Format settings, Endianness : Big
Codec ID : A_AC3
Duration : 1h 37mn
Bit rate mode : Constant
Bit rate : 448 Kbps
Channel count : 6 channels
Channel positions : Front: L C R, Side: L R, LFE
Sampling rate : 48.0 KHz
Bit depth : 16 bits
Compression mode : Lossy
Stream size : 312 MiB (12%)
Title : Audio Ingles [WwW.CinemaniaHD.org]
Language : English
Default : No
Forced : No

Text #1
ID : 4
Format : UTF-8
Codec ID : S_TEXT/UTF8
Codec ID/Info : UTF-8 Plain Text
Title : WwW.CinemaniaHD.org
Default : Yes
Forced : No

Text #2
ID : 5
Format : VobSub
Muxing mode : zlib
Codec ID : S_VOBSUB
Codec ID/Info : The same subtitle format used on DVDs
Title : Subtitulos Latino [WwW.CinemaniaHD.org]
Language : Spanish
Default : No
Forced : No

Text #3
ID : 6
Format : VobSub
Muxing mode : zlib
Codec ID : S_VOBSUB
Codec ID/Info : The same subtitle format used on DVDs
Title : Subtitulos Ingles [WwW.CinemaniaHD.org]
Language : English
Default : No
Forced : No

Menu
00:00:00.000 : en:(01)00:00:00:000
00:02:56.176 : en:(02)00:02:56:176
00:06:37.105 : en:(03)00:06:37:105
00:14:42.047 : en:(04)00:14:42:047
00:20:32.105 : en:(05)00:20:32:105
00:23:56.685 : en:(06)00:23:56:685
00:33:25.712 : en:(07)00:33:25:712
00:43:58.802 : en:(08)00:43:58:802
00:48:52.971 : en:(09)00:48:52:971
00:52:14.756 : en:(10)00:52:14:756
00:57:52.427 : en:(11)00:57:52:427
01:04:04.257 : en:(12)01:04:04:257
01:07:46.187 : en:(13)01:07:46:187
01:17:09.666 : en:(14)01:17:09:666
01:21:04.776 : en:(15)01:21:04:776
01:26:43.615 : en:(16)01:26:43:615
01:30:14.409 : en:(17)01:30:14:409
01:37:19.875 : en:(18)01:37:19:875

 

[/spoiler]

Freddy Krueger (Robert Englund) está en el infierno... de verdad. Hace diez años que este personaje (uno de los más terroríficos de todos los tiempos y protagonista de la serie Pesadilla en Elm Street) sacudió nuestros sueños para llevar a cabo su sangrienta venganza. Pero el recuerdo de Freddy ha sido sistemáticamente borrado en el pueblo, cuyos habitantes están decididos a terminar con él. Las potenciales víctimas han sido drogadas para impedir que sueñen, dejando impotente al maestro de las pesadillas. Han eliminado su miedo a Freddy y esto representa una tortura extrema para un psicópata egocéntrico que se considera una auténtica leyenda. Pero entonces Freddy resucita a Jason Voorhees (Ken Kirzinger), el psicópata asesino, protagonista de la serie de películas Viernes 13. Para Freddy es el medio perfecto para volver a aterrorizar a los habitantes de Elm Street y le da la oportunidad de salir de su purgatorio. Manipula a Jason con suma facilidad y le engaña para que viaje a Springwood para iniciar otro reinado de terror. Aunque los cadáveres empiezan a acumularse en Elm Street y la reputación de Freddy cobra nueva vida, Freddy descubre que Jason no está dispuesto a renunciar a sus costumbres asesinas y dejarle el camino libre. Con un pueblo estremecido de medio, un enfrentamiento de proporciones épicas se desata entre los dos titanes del terror, alternando entre el mundo de los sueños y la dura realidad del mundo de los vivos. ¿Quién ganará la batalla de todas las batallas?

http://www.youtube.com/watch?v=pdv1BXAAmJ4

Links Intercambiables

 

Publicos

 


 

COMPRA TU CUENTA PREMIUM PARA DESCARGA A MAXIMA VELOCIDAD DESDE LOS SIGUIENTES ENLACES:

UPLOADED.TO >>> CLICK AQUI

FILEPARADOX >>> CLICK AQUI

FREAKSHARE >>> CLICK AQUI

 

Titulo Original: A Nightmare on Elm Street

1080p | 1920×1080 | MKV | H.264 | Encoder byK40s | 2.54 GB | 1:35:32 min | Audio: Español Latino (AC3 5.1 DVD) - Ingles (AC3 5.1 BD)  | Subtitulo: Español Latino (.SRT) - Ingles (.SUB) | Terror. Misterio. Thriller | 2010 | 5% Registro de Recuperación (Reparar archivos rar)

[spoiler]

Format : Matroska
Format version : Version 4 / Version 2
File size : 2.54 GiB
Duration : 1h 35mn
Overall bit rate : 3 806 Kbps
Movie name : A Nightmare on Elm Street (2010) FULL 1080p [WwW.CinemaniaHD.org]
Encoded date : UTC 2014-04-28 22:40:45
Writing application : mkvmerge v6.5.0 ('Isn't she lovely') built on Oct 20 2013 12:50:05
Writing library : libebml v1.3.0 + libmatroska v1.4.1

Video
ID : 1
Format : AVC
Format/Info : Advanced Video Codec
Format profile : Main@L4.0
Format settings, CABAC : Yes
Format settings, ReFrames : 4 frames
Codec ID : V_MPEG4/ISO/AVC
Duration : 1h 35mn
Bit rate : 3 000 Kbps
Width : 1 920 pixels
Height : 1 080 pixels
Display aspect ratio : 16:9
Frame rate mode : Constant
Frame rate : 23.976 fps
Color space : YUV
Chroma subsampling : 4:2:0
Bit depth : 8 bits
Scan type : Progressive
Bits/(Pixel*Frame) : 0.060
Stream size : 1.93 GiB (76%)
Title : WwW.CinemaniaHD.org
Writing library : x264 core 130 r2273 b3065e6
Encoding settings : cabac=1 / ref=1 / deblock=1:0:0 / analyse=0x1:0x111 / me=hex / subme=2 / psy=1 / psy_rd=1.00:0.00 / mixed_ref=0 / me_range=16 / chroma_me=1 / trellis=0 / 8x8dct=0 / cqm=0 / deadzone=21,11 / fast_pskip=1 / chroma_qp_offset=0 / threads=24 / lookahead_threads=8 / sliced_threads=0 / nr=0 / decimate=1 / interlaced=0 / bluray_compat=0 / constrained_intra=0 / bframes=3 / b_pyramid=2 / b_adapt=1 / b_bias=0 / direct=1 / weightb=1 / open_gop=0 / weightp=1 / keyint=240 / keyint_min=24 / scenecut=40 / intra_refresh=0 / rc_lookahead=10 / rc=abr / mbtree=1 / bitrate=3000 / ratetol=1.0 / qcomp=0.60 / qpmin=0 / qpmax=69 / qpstep=4 / vbv_maxrate=20000 / vbv_bufsize=25000 / nal_hrd=none / ip_ratio=1.40 / aq=1:1.00
Language : English
Default : Yes
Forced : No
Color primaries : BT.709
Transfer characteristics : BT.709
Matrix coefficients : BT.709

Audio #1
ID : 2
Format : AC-3
Format/Info : Audio Coding 3
Mode extension : CM (complete main)
Format settings, Endianness : Big
Codec ID : A_AC3
Duration : 1h 35mn
Bit rate mode : Constant
Bit rate : 384 Kbps
Channel count : 6 channels
Channel positions : Front: L C R, Side: L R, LFE
Sampling rate : 48.0 KHz
Bit depth : 16 bits
Compression mode : Lossy
Stream size : 262 MiB (10%)
Title : Audio Latino [WwW.CinemaniaHD.org]
Language : Spanish
Default : Yes
Forced : No

Audio #2
ID : 3
Format : AC-3
Format/Info : Audio Coding 3
Mode extension : CM (complete main)
Format settings, Endianness : Big
Codec ID : A_AC3
Duration : 1h 35mn
Bit rate mode : Constant
Bit rate : 448 Kbps
Channel count : 6 channels
Channel positions : Front: L C R, Side: L R, LFE
Sampling rate : 48.0 KHz
Bit depth : 16 bits
Compression mode : Lossy
Stream size : 306 MiB (12%)
Title : Audio Ingles [WwW.CinemaniaHD.org]
Language : English
Default : No
Forced : No

Text #1
ID : 4
Format : UTF-8
Codec ID : S_TEXT/UTF8
Codec ID/Info : UTF-8 Plain Text
Title : WwW.CinemaniaHD.org
Default : Yes
Forced : No

Text #2
ID : 5
Format : UTF-8
Codec ID : S_TEXT/UTF8
Codec ID/Info : UTF-8 Plain Text
Title : Subtitulos Latino [WwW.CinemaniaHD.org]
Language : Spanish
Default : No
Forced : No

Text #3
ID : 6
Format : PGS
Muxing mode : zlib
Codec ID : S_HDMV/PGS
Codec ID/Info : The same subtitle format used on BDs/HD-DVDs
Title : Subtitulos Ingles [WwW.CinemaniaHD.org]
Language : English
Default : No
Forced : No

Menu
00:00:00.000 : en:Chapter 1
00:09:25.148 : en:Chapter 2
00:20:58.799 : en:Chapter 3
00:30:23.363 : en:Chapter 4
00:40:55.995 : en:Chapter 5
00:53:04.890 : en:Chapter 6
01:01:09.958 : en:Chapter 7
01:10:08.162 : en:Chapter 8
01:20:01.213 : en:Chapter 9
01:29:58.518 : en:Chapter 10

 

[/spoiler]

Versión contemporánea del clásico del cine de terror. Un grupo de adolescentes de los suburbios empiezan a ser perseguidos por Freddy Krueger, un asesino de aspecto terrible y con el rostro quemado que trata de acabar con ellos mientras duermen. Necesitan, pues, permanecer despiertos para protegerse mutuamente. Pero, si duermen, no hay escapatoria.

http://www.youtube.com/watch?v=luFkSVJmobA

Links Intercambiables

 

Publicos

 


 

COMPRA TU CUENTA PREMIUM PARA DESCARGA A MAXIMA VELOCIDAD DESDE LOS SIGUIENTES ENLACES:

UPLOADED.TO >>> CLICK AQUI

FILEPARADOX >>> CLICK AQUI

FREAKSHARE >>> CLICK AQUI

Post Relacionados