Actualmente tenemos 4572 para descargar peliculas gratis 1080p latino

El Hobbit: La Desolación de Smaug (2013) 1080p FULL HD Latino – Ingles

“El Hobbit: La Desolación de Smaug” continua la aventura de Bilbo Bolsón en su viaje con el mago Gandalf y trece enanos liderados por Thorin Escudo de Roble en una búsqueda épica para reclamar el reino enano de Erebor. En su camino toparán con multitud de peligros y harán frente al temible dragón Smaug.



Titulo Original The Hobbit: The Desolation of Smaug
Año 2013
Duracion 160 min.
Guion
Director Peter Jackson
Musica Howard Shore
Photografia Andrew Lesnie
Reparto Martin Freeman, Richard Armitage, Ian McKellen, Aidan Turner, Luke Evans, Evangeline Lilly, Ken Stott, Orlando Bloom, Graham McTavish, James Nesbitt, Jed Brophy, Stephen Hunter, Ken Stott, John Callen, Adam Brown, Dean O\\\\\\\\\\\\\\\\\\\\\\\\\\\\\\\'Gorman, William Kircher, Peter Hambleton, Mark Hadlow, Lee Pace, Ryan Gage, Stephen Fry, Mikael Persbrandt, Sylvester McCoy, Manu Bennett
Productora Martin Freeman, Richard Armitage, Ian McKellen, Aidan Turner, Luke Evans, Evangeline Lilly, Ken Stott, Orlando Bloom, Graham McTavish, James Nesbitt, Jed Brophy, Stephen Hunter, Ken Stott, John Callen, Adam Brown, Dean O\\\\\\\\\\\\\\\\\\\\\\\\\\\\\\\'Gorman, William Kircher, Peter Hambleton, Mark Hadlow, Lee Pace, Ryan Gage, Stephen Fry, Mikael Persbrandt, Sylvester McCoy, Manu Bennett
Genero
Titulo original The Hobbit: The Desolation of Smaug (2013) 1080p FULL HD Latino – Ingles
Titulo Latino El Hobbit: La Desolación de Smaug (2013) 1080p FULL HD Latino – Ingles
Otros Titulos El Hobbit: La Desolación de Smaug (2013) 1080p FULL HD Latino – Ingles
Audio Español Latino [AC3 5.1 BD] - Ingles [DTS 5.1 BD]
Calidad: FULL HD 1080p Resolucion: 1920x1080p Formato: MKV
Codec: H.264 Encoder: ADDKiQ Peso: 7.4 GB
Subtitulos: Español Latino [SRT+PGS] - Ingles [PGS] Duracion: 160 min. Capitulos:
  • No hay video embed hola

General
Complete name : E:\Elhobbit22013.ADDKiQ.mkv
Format : Matroska
Format version : Version 2
File size : 7.42 GiB
Duration : 2h 41mn
Overall bit rate : 6 585 Kbps
Encoded date : UTC 2016-06-16T11:50:09Z
Writing application : HandBrake 0.10.5 2016021100
Writing library : Lavf55.12.0

Video
ID : 1
Format : AVC
Format/Info : Advanced Video Codec
Format profile : High@L4.1
Format settings, CABAC : Yes
Format settings, ReFrames : 4 frames
Codec ID : V_MPEG4/ISO/AVC
Bit rate : 4 497 Kbps
Width : 1 920 pixels
Height : 1 080 pixels
Display aspect ratio : 16:9
Frame rate mode : Variable
Color space : YUV
Chroma subsampling : 4:2:0
Bit depth : 8 bits
Scan type : Progressive
Writing library : x264 core 142 r2479 dd79a61
Encoding settings : cabac=1 / ref=4 / deblock=1:0:0 / analyse=0x3:0x133 / me=tesa / subme=11 / psy=1 / psy_rd=1.00:0.00 / mixed_ref=1 / me_range=24 / chroma_me=1 / trellis=2 / 8x8dct=1 / cqm=0 / deadzone=21,11 / fast_pskip=0 / chroma_qp_offset=-2 / threads=12 / lookahead_threads=3 / sliced_threads=0 / nr=0 / decimate=1 / interlaced=0 / bluray_compat=0 / constrained_intra=0 / bframes=16 / b_pyramid=2 / b_adapt=2 / b_bias=0 / direct=3 / weightb=1 / open_gop=0 / weightp=2 / keyint=240 / keyint_min=24 / scenecut=40 / intra_refresh=0 / rc_lookahead=60 / rc=crf / mbtree=1 / crf=20.0 / qcomp=0.60 / qpmin=0 / qpmax=69 / qpstep=4 / vbv_maxrate=62500 / vbv_bufsize=78125 / crf_max=0.0 / nal_hrd=none / filler=0 / ip_ratio=1.40 / aq=1:1.00
Default : Yes
Forced : No
Color range : Limited
Color primaries : BT.709
Transfer characteristics : BT.709
Matrix coefficients : BT.709

Audio #1
ID : 2
Format : AC-3
Format/Info : Audio Coding 3
Mode extension : CM (complete main)
Format settings, Endianness : Big
Codec ID : A_AC3
Duration : 2h 41mn
Bit rate mode : Constant
Bit rate : 448 Kbps
Channel(s) : 6 channels
Channel positions : Front: L C R, Side: L R, LFE
Sampling rate : 48.0 KHz
Compression mode : Lossy
Stream size : 517 MiB (7%)
Title : Surround
Language : Spanish
Default : Yes
Forced : No

Audio #2
ID : 3
Format : DTS
Format/Info : Digital Theater Systems
Mode : 16
Format settings, Endianness : Big
Codec ID : A_DTS
Duration : 2h 41mn
Bit rate mode : Constant
Bit rate : 1 509 Kbps
Channel(s) : 6 channels
Channel positions : Front: L C R, Side: L R, LFE
Sampling rate : 48.0 KHz
Bit depth : 24 bits
Compression mode : Lossy
Stream size : 1.70 GiB (23%)
Title : Surround
Language : English
Default : No
Forced : No

Text #1
ID : 4
Format : PGS
Codec ID : S_HDMV/PGS
Codec ID/Info : Picture based subtitle format used on BDs/HD-DVDs
Language : Spanish
Default : No
Forced : No

Text #2
ID : 5
Format : PGS
Codec ID : S_HDMV/PGS
Codec ID/Info : Picture based subtitle format used on BDs/HD-DVDs
Language : English
Default : No
Forced : No

Menu
00:00:00.000 : :Chapter 1
00:05:44.194 : :Chapter 2
00:10:11.085 : :Chapter 3
00:11:10.228 : :Chapter 4
00:13:50.304 : :Chapter 5
00:17:12.757 : :Chapter 6
00:21:25.426 : :Chapter 7
00:24:33.572 : :Chapter 8
00:33:03.373 : :Chapter 9
00:36:05.847 : :Chapter 10
00:39:39.060 : :Chapter 11
00:41:29.754 : :Chapter 12
00:44:27.390 : :Chapter 13
00:55:01.857 : :Chapter 14
00:58:41.868 : :Chapter 15
01:02:05.238 : :Chapter 16
01:05:29.692 : :Chapter 17
01:09:06.367 : :Chapter 18
01:11:29.218 : :Chapter 19
01:13:11.862 : :Chapter 20
01:19:15.059 : :Chapter 21
01:20:48.569 : :Chapter 22
01:23:12.629 : :Chapter 23
01:27:09.741 : :Chapter 24
01:30:45.582 : :Chapter 25
01:33:29.913 : :Chapter 26
01:41:57.294 : :Chapter 27
01:42:24.572 : :Chapter 28
01:44:08.133 : :Chapter 29
01:47:34.214 : :Chapter 30
01:56:46.433 : :Chapter 31
01:57:29.017 : :Chapter 32
01:58:03.510 : :Chapter 33
01:59:42.400 : :Chapter 34
02:01:30.675 : :Chapter 35
02:04:04.412 : :Chapter 36
02:07:58.562 : :Chapter 37
02:09:43.209 : :Chapter 38
02:10:58.742 : :Chapter 39
02:12:31.544 : :Chapter 40
02:13:54.418 : :Chapter 41
02:16:25.527 : :Chapter 42
02:18:51.590 : :Chapter 43
02:26:03.688 : :Chapter 44
02:30:51.309 : :Chapter 45

Download Links

CONTRASEÑA PARA DESCOMPRIMIR

APORTES NUEVOS

cinemaniahdd.com

APORTES VIEJOS

CinemaniaHD.org

COMPRA O RENUEVA TU PREMIUM DE UPLOADED DESDE EL SIGUIENTE LINK:

http://ul.to/ref/9821430

SI GUSTAS PUEDES SEGUIRNOS EN LAS REDES SOCIALES

Facebook

Twitter

Post Relacionados