Actualmente tenemos 4572 para descargar peliculas gratis 1080p latino

Deepwater Horizon (2016) 1080p BluRay x265 HEVC Dual Latino

deepwater-horizon-x265
Basado en los eventos sucedidos en el Golfo de México en abril del 2010, cuando un accidente en un oleoducto causó una catástrofe que mató a 11 personas e hirió a otras 16, provocando además una de las catástrofes medioambientales más graves causadas por el hombre.


Titulo Original Deepwater Horizon
Año 2016-09-29
Duracion 107
Guion Matthew Michael Carnahan (screenplay), Matthew Sand (screenplay), Matthew Sand (screen story), David Rohde (article), Stephanie Saul (article)
Director Peter Berg
Musica
Photografia
Reparto Mark Wahlberg, Kurt Russell, Douglas M. Griffin, James DuMont
Productora Di Bonaventura Pictures, Summit Entertainment, Lionsgate, Participant Productions, Participant Media,
Genero Suspense, Drama, Acción,
Titulo original Deepwater Horizon
Titulo Latino Horizonte Profundo: Desastre En El Golfo
Otros Titulos Marea Negra
Audio Español Latino AC3 5.1 - Inglés AC3 5.1
Calidad: FULL HD Resolucion: 1920x1080 Formato: MKV
Codec: H.265 Encoder: Sebastian1813 Peso: 2.82 GB
Subtitulos: Español Latino (PGS/SRT) - Forzados (SRT) Duracion: 1h 47min Capitulos:
  • No hay video embed hola

Deepwater.Horizon.2016.1080p.BluRay.x265.HEVC.Dual.Latino-Papelillio.mkv
Format : Matroska
Format version : Version 4 / Version 2
File size : 2.82 GiB
Duration : 1h 47mn
Overall bit rate : 3 760 Kbps
Encoded date : UTC 2017-01-02 01:48:14
Writing application : mkvmerge v7.4.0 ('Circles') 64bit built on Dec 12 2014 12:19:56
Writing library : libebml v1.3.0 + libmatroska v1.4.1
DURATION : 01:05:04.315000000
NUMBER_OF_FRAMES : 20
NUMBER_OF_BYTES : 590
_STATISTICS_WRITING_APP : mkvmerge v7.4.0 ('Circles') 64bit built on Dec 12 2014 12:19:56
_STATISTICS_WRITING_DATE_UT : 2017-01-02 01:48:14
_STATISTICS_TAGS : BPS DURATION NUMBER_OF_FRAMES NUMBER_OF_BYTES

Video
ID : 1
Format : HEVC
Format/Info : High Efficiency Video Coding
Format profile : Main@L4@Main
Codec ID : V_MPEGH/ISO/HEVC
Duration : 1h 47mn
Bit rate : 2 405 Kbps
Width : 1 920 pixels
Height : 1 080 pixels
Display aspect ratio : 16:9
Frame rate mode : Constant
Frame rate : 23.976 fps
Color space : YUV
Chroma subsampling : 4:2:0
Bit depth : 8 bits
Bits/(Pixel*Frame) : 0.048
Stream size : 1.80 GiB (64%)
Title : Fuente Encodeo: BD50 - Papelillio
Writing library : x265 1.9:[Windows][GCC 4.9.0][64 bit] 8bit
Encoding settings : wpp / ctu=64 / min-cu-size=8 / max-tu-size=32 / tu-intra-depth=1 / tu-inter-depth=1 / me=3 / subme=3 / merange=57 / rect / no-amp / max-merge=3 / temporal-mvp / no-early-skip / rdpenalty=0 / no-tskip / no-tskip-fast / strong-intra-smoothing / no-lossless / no-cu-lossless / no-constrained-intra / no-fast-intra / open-gop / no-temporal-layers / interlace=0 / keyint=240 / min-keyint=24 / scenecut=40 / rc-lookahead=25 / lookahead-slices=4 / bframes=4 / bframe-bias=0 / b-adapt=2 / ref=4 / limit-refs=3 / limit-modes / weightp / no-weightb / aq-mode=1 / qg-size=32 / aq-strength=1.00 / cbqpoffs=0 / crqpoffs=0 / rd=4 / psy-rd=2.00 / rdoq-level=2 / psy-rdoq=1.00 / signhide / deblock / sao / no-sao-non-deblock / b-pyramid / cutree / no-intra-refresh / rc=crf / crf=20.0 / qcomp=0.60 / qpmin=0 / qpmax=51 / qpstep=4 / ipratio=1.40 / pbratio=1.30
Default : Yes
Forced : No
Color range : Limited
Color primaries : BT.709
Transfer characteristics : BT.709
Matrix coefficients : BT.709
DURATION : 01:47:17.473000000
NUMBER_OF_FRAMES : 154345
NUMBER_OF_BYTES : 1979900901
_STATISTICS_WRITING_APP : mkvmerge v7.4.0 ('Circles') 64bit built on Dec 12 2014 12:19:56
_STATISTICS_WRITING_DATE_UT : 2017-01-02 01:48:14
_STATISTICS_TAGS : BPS DURATION NUMBER_OF_FRAMES NUMBER_OF_BYTES

Audio #1
ID : 2
Format : AC-3
Format/Info : Audio Coding 3
Mode extension : CM (complete main)
Format settings, Endianness : Big
Codec ID : A_AC3
Duration : 1h 47mn
Bit rate mode : Constant
Bit rate : 640 Kbps
Channel(s) : 6 channels
Channel positions : Front: L C R, Side: L R, LFE
Sampling rate : 48.0 KHz
Compression mode : Lossy
Delay relative to video : -83ms
Stream size : 491 MiB (17%)
Title : Audio Español Latino AC3 5.1 @640Kbps - Papelillio
Language : Spanish
Default : Yes
Forced : No

Audio #2
ID : 3
Format : AC-3
Format/Info : Audio Coding 3
Mode extension : CM (complete main)
Format settings, Endianness : Big
Codec ID : A_AC3
Duration : 1h 47mn
Bit rate mode : Constant
Bit rate : 640 Kbps
Channel(s) : 6 channels
Channel positions : Front: L C R, Side: L R, LFE
Sampling rate : 48.0 KHz
Compression mode : Lossy
Delay relative to video : -83ms
Stream size : 491 MiB (17%)
Title : Audio Inglés AC3 5.1 @640Kbps - Papelillio
Language : English
Default : No
Forced : No

Text #1
ID : 4
Format : UTF-8
Codec ID : S_TEXT/UTF8
Codec ID/Info : UTF-8 Plain Text
Title : Subtítulos Español Latino - Forzados (SRT) - Papelillio
Language : Spanish
Default : Yes
Forced : No

Text #2
ID : 5
Format : UTF-8
Codec ID : S_TEXT/UTF8
Codec ID/Info : UTF-8 Plain Text
Title : Subtítulos Español Latino (SRT) - Papelillio
Language : Spanish
Default : No
Forced : No

Text #3
ID : 6
Format : PGS
Muxing mode : zlib
Codec ID : S_HDMV/PGS
Codec ID/Info : Picture based subtitle format used on BDs/HD-DVDs
Title : Subtítulos Español Latino (PGS) - Papelillio
Language : Spanish
Default : No
Forced : No

Menu
00:00:00.000 : :Chapter 3
00:07:00.378 : :Chapter 1
00:07:01.295 : :Chapter 2
00:12:32.710 : :Chapter 3
00:19:34.548 : :Chapter 4
00:27:16.509 : :Chapter 6
00:34:52.214 : :Chapter 5
00:34:52.715 : :Chapter 6
00:48:04.089 : :Chapter 7
00:48:05.006 : :Chapter 8
00:53:47.682 : :Chapter 9
00:58:05.231 : :Chapter 10
01:05:44.690 : :Chapter 11
01:10:06.952 : :Chapter 12
01:16:03.016 : :Chapter 13
01:20:44.464 : :Chapter 14
01:27:37.752 : :Chapter 15
01:31:37.908 : :Chapter 16

Download Links

CONTRASEÑA PARA DESCOMPRIMIR

APORTES NUEVOS

cinemaniahdd.com

APORTES VIEJOS

CinemaniaHD.org

COMPRA O RENUEVA TU PREMIUM DE UPLOADED DESDE EL SIGUIENTE LINK:

http://ul.to/ref/9821430

SI GUSTAS PUEDES SEGUIRNOS EN LAS REDES SOCIALES

Facebook

Twitter

Post Relacionados