Actualmente tenemos 4572 para descargar peliculas gratis 1080p latino

Creed. La leyenda de Rocky (2015) 1080p FULL HD Latino

Adonis Johnson no llegó a conocer a su padre, el campeón del mundo de los pesos pesados Apollo Creed, que falleció antes de que él naciera. Sin embargo, nadie puede negar que lleva el boxeo en la sangre, por lo que pone rumbo a Filadelfia, el lugar en el que se celebró el legendario combate entre su padre y Rocky Balboa. Una vez allí, Adonis busca a Rocky y le pide que sea su entrenador. A pesar de que este insiste en que ya ha dejado ese mundo para siempre, Rocky ve en Adonis la fuerza y determinación que tenía su enconado rival, y que terminó por convertirse en su mejor amigo. Finalmente, acepta entrenarle a pesar de estar librando su propio combate contra un rival más letal que cualquiera a los que se enfrentó en el cuadrilátero.



Titulo Original Creed
Año 2015
Duracion 132 min.
Guion
Director Ryan Coogler
Musica Ludwig Göransson
Photografia Maryse Alberti
Reparto Michael B. Jordan, Sylvester Stallone, Tessa Thompson, Phylicia Rashad, Will Blagrove, Juan-Pablo Veza, Andre Ward, Tony Bellew, Philip Greene, Manny Ayala, Cory Kastle, Vincent Cucuzza, Christopher Weite
Productora Michael B. Jordan, Sylvester Stallone, Tessa Thompson, Phylicia Rashad, Will Blagrove, Juan-Pablo Veza, Andre Ward, Tony Bellew, Philip Greene, Manny Ayala, Cory Kastle, Vincent Cucuzza, Christopher Weite
Genero
Titulo original Creed (2015) 1080p FULL HD Latino
Titulo Latino Creed. La leyenda de Rocky (2015) 1080p FULL HD Latino
Otros Titulos Creed: Corazón de campeón (2015) 1080p FULL HD Latino
Audio Español Latino [AC3 5.1 BD] - Ingles [DTS 5.1 BD]
Calidad: FULL HD 1080p Resolucion: 1920x1080p Formato: MKV
Codec: H.264 Encoder: ADDKiQ Peso: 6.7 GB
Subtitulos: Español Latino [PGS] - Ingles [PGS] Duracion: 132 min. Capitulos:
  • No hay video embed hola

General
Complete name : P:\Creed Pesada\Creed cinemaniahdd.com.mkv
Format : Matroska
Format version : Version 4 / Version 2
File size : 6.80 GiB
Duration : 2h 13mn
Overall bit rate : 7 306 Kbps
Movie name : Creed cinemaniahdd.com
Encoded date : UTC 2016-02-12 21:49:42 / UTC 2016-02-12T20:38:05Z
Writing application : mkvmerge v7.9.0 ('Birds') 64bit
Writing library : libebml v1.3.1 + libmatroska v1.4.2 / Lavf55.12.0

Video
ID : 1
Format : AVC
Format/Info : Advanced Video Codec
Format profile : High@L4.1
Format settings, CABAC : Yes
Format settings, ReFrames : 4 frames
Codec ID : V_MPEG4/ISO/AVC
Duration : 2h 13mn
Bit rate : 5 012 Kbps
Width : 1 920 pixels
Height : 1 080 pixels
Display aspect ratio : 16:9
Frame rate mode : Constant
Frame rate : 23.976 (24000/1001) fps
Color space : YUV
Chroma subsampling : 4:2:0
Bit depth : 8 bits
Scan type : Progressive
Bits/(Pixel*Frame) : 0.101
Stream size : 4.66 GiB (69%)
Title : cinemaniahdd.com
Writing library : x264 core 142 r2479 dd79a61
Encoding settings : cabac=1 / ref=1 / deblock=1:0:0 / analyse=0x3:0x113 / me=esa / subme=2 / psy=1 / psy_rd=1.00:0.00 / mixed_ref=0 / me_range=16 / chroma_me=1 / trellis=0 / 8x8dct=1 / cqm=0 / deadzone=21,11 / fast_pskip=1 / chroma_qp_offset=0 / threads=36 / lookahead_threads=8 / sliced_threads=0 / nr=0 / decimate=1 / interlaced=0 / bluray_compat=0 / constrained_intra=0 / bframes=3 / b_pyramid=2 / b_adapt=1 / b_bias=0 / direct=1 / weightb=1 / open_gop=0 / weightp=1 / keyint=240 / keyint_min=24 / scenecut=40 / intra_refresh=0 / rc_lookahead=10 / rc=crf / mbtree=1 / crf=20.0 / qcomp=0.60 / qpmin=0 / qpmax=69 / qpstep=4 / vbv_maxrate=62500 / vbv_bufsize=78125 / crf_max=0.0 / nal_hrd=none / filler=0 / ip_ratio=1.40 / aq=1:1.00
Default : Yes
Forced : No
Color range : Limited
Color primaries : BT.709
Transfer characteristics : BT.709
Matrix coefficients : BT.709
Statistics Tags Issue : mkvmerge v7.9.0 ('Birds') 64bit 2016-02-12 21:49:42 / mkvmerge v7.9.0 ('Birds') 64bit 2016-02-12 21:49:42 / UTC 2016-02-12T20:38:05Z
FromStats_BitRate : 5128104
FromStats_Duration : 02:13:10.041000000
FromStats_FrameCount : 191568
FromStats_StreamSize : 5121720687

Audio #1
ID : 2
Format : DTS
Format/Info : Digital Theater Systems
Mode : 16
Format settings, Endianness : Big
Codec ID : A_DTS
Duration : 2h 13mn
Bit rate mode : Constant
Bit rate : 1 509 Kbps
Channel(s) : 6 channels
Channel positions : Front: L C R, Side: L R, LFE
Sampling rate : 48.0 KHz
Frame rate : 93.750 fps (512 spf)
Bit depth : 24 bits
Compression mode : Lossy
Stream size : 1.40 GiB (21%)
Title : Ingles cinemaniahdd.com
Language : English
Default : Yes
Forced : No
Statistics Tags Issue : mkvmerge v7.9.0 ('Birds') 64bit 2016-02-12 21:49:42 / mkvmerge v7.9.0 ('Birds') 64bit 2016-02-12 21:49:42 / UTC 2016-02-12T20:38:05Z
FromStats_BitRate : 1509000
FromStats_Duration : 02:13:10.016000000
FromStats_FrameCount : 749064
FromStats_StreamSize : 1507116768

Audio #2
ID : 3
Format : AC-3
Format/Info : Audio Coding 3
Mode extension : CM (complete main)
Format settings, Endianness : Big
Codec ID : A_AC3
Duration : 2h 13mn
Bit rate mode : Constant
Bit rate : 640 Kbps
Channel(s) : 6 channels
Channel positions : Front: L C R, Side: L R, LFE
Sampling rate : 48.0 KHz
Frame rate : 31.250 fps (1536 spf)
Compression mode : Lossy
Stream size : 610 MiB (9%)
Title : Latino cinemaniahdd.com
Language : Spanish
Default : No
Forced : No
Statistics Tags Issue : mkvmerge v7.9.0 ('Birds') 64bit 2016-02-12 21:49:42 / mkvmerge v7.9.0 ('Birds') 64bit 2016-02-12 21:49:42 / UTC 2016-02-12T20:38:05Z
FromStats_BitRate : 640000
FromStats_Duration : 02:13:10.048000000
FromStats_FrameCount : 249689
FromStats_StreamSize : 639203840

Text #1
ID : 4
Format : PGS
Muxing mode : zlib
Codec ID : S_HDMV/PGS
Codec ID/Info : Picture based subtitle format used on BDs/HD-DVDs
Title : cinemaniahdd.com
Language : English
Default : No
Forced : No
Statistics Tags Issue : mkvmerge v7.9.0 ('Birds') 64bit 2016-02-12 21:49:42 / mkvmerge v7.9.0 ('Birds') 64bit 2016-02-12 21:49:42 / UTC 2016-02-12T20:38:05Z
FromStats_BitRate : 14185
FromStats_Duration : 02:11:55.825000000
FromStats_FrameCount : 4420
FromStats_StreamSize : 14036552

Text #2
ID : 5
Format : PGS
Muxing mode : zlib
Codec ID : S_HDMV/PGS
Codec ID/Info : Picture based subtitle format used on BDs/HD-DVDs
Title : cinemaniahdd.com
Language : Spanish
Default : No
Forced : No
Statistics Tags Issue : mkvmerge v7.9.0 ('Birds') 64bit 2016-02-12 21:49:42 / mkvmerge v7.9.0 ('Birds') 64bit 2016-02-12 21:49:42 / UTC 2016-02-12T20:38:05Z
FromStats_BitRate : 12011
FromStats_Duration : 02:11:55.741000000
FromStats_FrameCount : 4042
FromStats_StreamSize : 11885405

Menu
00:00:00.000 : :Chapter 1
00:09:14.445 : :Chapter 2
00:22:05.966 : :Chapter 3
00:31:31.990 : :Chapter 4
00:41:34.634 : :Chapter 5
00:52:18.068 : :Chapter 6
01:01:32.122 : :Chapter 7
01:09:14.000 : :Chapter 8
01:19:01.045 : :Chapter 9
01:25:13.709 : :Chapter 10
01:32:27.851 : :Chapter 11
01:41:16.504 : :Chapter 12
01:50:14.499 : :Chapter 13
02:01:07.777 : :Chapter 14
02:06:34.437 : :Chapter 15

Download Links

CONTRASEÑA PARA DESCOMPRIMIR

APORTES NUEVOS

cinemaniahdd.com

APORTES VIEJOS

CinemaniaHD.org

COMPRA O RENUEVA TU PREMIUM DE UPLOADED DESDE EL SIGUIENTE LINK:

http://ul.to/ref/9821430

SI GUSTAS PUEDES SEGUIRNOS EN LAS REDES SOCIALES

Facebook

Twitter

Post Relacionados