Actualmente tenemos 4572 para descargar peliculas gratis 1080p latino

50 Sombras de Black (2016) 1080p FULL HD Latino – Ingles

Hannah recibe el encargo de entrevistar a un joven empresario, Christian Black. La inexperta e inocente chica intenta olvidarlo, pero pronto comprende cuánto le desea. Cuando la pareja por fin inicia una apasionada y desenfrenada relación, Hannah se sorprende por las peculiares prácticas eróticas de Black, al tiempo que descubre los límites de sus propios y más oscuros deseos. Parodia de 50 sombras de Grey.



Titulo Original Fifty Shades of Black
Año 2016
Duracion 92 min.
Guion
Director Michael Tiddes
Musica Jim Dooley
Photografia David Ortkiese
Reparto Marlon Wayans, Jane Seymour, Fred Willard, Mike Epps, Kali Hawk, Andrew Bachelor, Affion Crockett, Tina Grimm, Kate Miner, Alice Rietveld, Brad Schmidt, Karli Karissa
Productora Marlon Wayans, Jane Seymour, Fred Willard, Mike Epps, Kali Hawk, Andrew Bachelor, Affion Crockett, Tina Grimm, Kate Miner, Alice Rietveld, Brad Schmidt, Karli Karissa
Genero
Titulo original Fifty Shades of Black (2016) 1080p FULL HD Latino - Ingles
Titulo Latino 50 Sombras de Black (2016) 1080p FULL HD Latino - Ingles
Otros Titulos 50 Sombras de Black (2016) 1080p FULL HD Latino - Ingles
Audio Español Latino [AC3 5.1 DVD] - Ingles [DTS 5.1 BD]
Calidad: FULL HD 1080p Resolucion: 1920x1080p Formato: MKV
Codec: H.264 Encoder: ADDKiQ Peso: 2.6 GB
Subtitulos: Español Latino [SRT+PGS] - Ingles [PGS] Duracion: 92 min. Capitulos:
  • No hay video embed hola

General
Complete name : K:\Fifty Shades Of Black 2016 addkiqe.cinemaniahdd.com.mkv
Format : Matroska
Format version : Version 4 / Version 2
File size : 2.67 GiB
Duration : 1h 31mn
Overall bit rate : 4 161 Kbps
Encoded date : UTC 2016-05-09 18:23:43 / UTC 2016-05-09T02:00:25Z
Writing application : mkvmerge v7.9.0 ('Birds') 64bit
Writing library : libebml v1.3.1 + libmatroska v1.4.2 / Lavf55.12.0

Video
ID : 1
Format : AVC
Format/Info : Advanced Video Codec
Format profile : High@L4.1
Format settings, CABAC : Yes
Format settings, ReFrames : 4 frames
Codec ID : V_MPEG4/ISO/AVC
Duration : 1h 31mn
Bit rate : 2 121 Kbps
Width : 1 920 pixels
Height : 1 080 pixels
Display aspect ratio : 16:9
Frame rate mode : Constant
Frame rate : 23.976 (24000/1001) fps
Color space : YUV
Chroma subsampling : 4:2:0
Bit depth : 8 bits
Scan type : Progressive
Bits/(Pixel*Frame) : 0.043
Stream size : 1.36 GiB (51%)
Title : cinemaniahdd.com
Writing library : x264 core 142 r2479 dd79a61
Encoding settings : cabac=1 / ref=4 / deblock=1:0:0 / analyse=0x3:0x133 / me=tesa / subme=11 / psy=1 / psy_rd=1.00:0.00 / mixed_ref=1 / me_range=24 / chroma_me=1 / trellis=2 / 8x8dct=1 / cqm=0 / deadzone=21,11 / fast_pskip=0 / chroma_qp_offset=-2 / threads=36 / lookahead_threads=8 / sliced_threads=0 / nr=0 / decimate=1 / interlaced=0 / bluray_compat=0 / constrained_intra=0 / bframes=16 / b_pyramid=2 / b_adapt=2 / b_bias=0 / direct=3 / weightb=1 / open_gop=0 / weightp=2 / keyint=240 / keyint_min=24 / scenecut=40 / intra_refresh=0 / rc_lookahead=60 / rc=crf / mbtree=1 / crf=20.0 / qcomp=0.60 / qpmin=0 / qpmax=69 / qpstep=4 / vbv_maxrate=62500 / vbv_bufsize=78125 / crf_max=0.0 / nal_hrd=none / filler=0 / ip_ratio=1.40 / aq=1:1.00
Default : Yes
Forced : No
Color range : Limited
Color primaries : BT.709
Transfer characteristics : BT.709
Matrix coefficients : BT.709
Statistics Tags Issue : mkvmerge v7.9.0 ('Birds') 64bit 2016-05-09 18:23:43 / mkvmerge v7.9.0 ('Birds') 64bit 2016-05-09 18:23:43 / UTC 2016-05-09T02:00:25Z
FromStats_BitRate : 2172566
FromStats_Duration : 01:31:58.530000000
FromStats_FrameCount : 132311
FromStats_StreamSize : 1498671419

Audio #1
ID : 2
Format : AC-3
Format/Info : Audio Coding 3
Mode extension : CM (complete main)
Format settings, Endianness : Big
Codec ID : A_AC3
Duration : 1h 31mn
Bit rate mode : Constant
Bit rate : 448 Kbps
Channel(s) : 6 channels
Channel positions : Front: L C R, Side: L R, LFE
Sampling rate : 48.0 KHz
Frame rate : 31.250 fps (1536 spf)
Compression mode : Lossy
Delay relative to video : -83ms
Stream size : 295 MiB (11%)
Title : Latino
Language : Spanish
Default : Yes
Forced : No
Statistics Tags Issue : mkvmerge v7.9.0 ('Birds') 64bit 2016-05-09 18:23:43 / mkvmerge v7.9.0 ('Birds') 64bit 2016-05-09 18:23:43 / UTC 2016-05-09T02:00:25Z
FromStats_BitRate : 448000
FromStats_Duration : 01:31:59.008000000
FromStats_FrameCount : 172469
FromStats_StreamSize : 309064448

Audio #2
ID : 3
Format : DTS
Format/Info : Digital Theater Systems
Mode : 16
Format settings, Endianness : Big
Codec ID : A_DTS
Duration : 1h 31mn
Bit rate mode : Constant
Bit rate : 1 509 Kbps
Channel(s) : 6 channels
Channel positions : Front: L C R, Side: L R, LFE
Sampling rate : 48.0 KHz
Frame rate : 93.750 fps (512 spf)
Bit depth : 24 bits
Compression mode : Lossy
Stream size : 993 MiB (36%)
Title : Surround
Language : English
Default : No
Forced : No
Statistics Tags Issue : mkvmerge v7.9.0 ('Birds') 64bit 2016-05-09 18:23:43 / mkvmerge v7.9.0 ('Birds') 64bit 2016-05-09 18:23:43 / UTC 2016-05-09T02:00:25Z
FromStats_BitRate : 1508999
FromStats_Duration : 01:31:58.507000000
FromStats_FrameCount : 517360
FromStats_StreamSize : 1040928320

Text #1
ID : 4
Format : PGS
Muxing mode : zlib
Codec ID : S_HDMV/PGS
Codec ID/Info : Picture based subtitle format used on BDs/HD-DVDs
Language : Spanish
Default : No
Forced : No
Statistics Tags Issue : mkvmerge v7.9.0 ('Birds') 64bit 2016-05-09 18:23:43 / mkvmerge v7.9.0 ('Birds') 64bit 2016-05-09 18:23:43 / UTC 2016-05-09T02:00:25Z
FromStats_BitRate : 12726
FromStats_Duration : 01:30:54.824000000
FromStats_FrameCount : 2640
FromStats_StreamSize : 8677868

Text #2
ID : 5
Format : PGS
Muxing mode : zlib
Codec ID : S_HDMV/PGS
Codec ID/Info : Picture based subtitle format used on BDs/HD-DVDs
Language : English
Default : No
Forced : No
Statistics Tags Issue : mkvmerge v7.9.0 ('Birds') 64bit 2016-05-09 18:23:43 / mkvmerge v7.9.0 ('Birds') 64bit 2016-05-09 18:23:43 / UTC 2016-05-09T02:00:25Z
FromStats_BitRate : 17800
FromStats_Duration : 01:24:27.228000000
FromStats_FrameCount : 3552
FromStats_StreamSize : 11274872

Menu
00:00:00.000 : :Chapter 1
00:03:55.210 : :Chapter 2
00:09:30.795 : :Chapter 3
00:14:05.778 : :Chapter 4
00:16:32.174 : :Chapter 5
00:21:11.370 : :Chapter 6
00:24:27.483 : :Chapter 7
00:26:50.375 : :Chapter 8
00:32:44.813 : :Chapter 9
00:37:48.783 : :Chapter 10
00:43:08.477 : :Chapter 11
00:49:19.014 : :Chapter 12
00:52:10.811 : :Chapter 13
00:56:28.902 : :Chapter 14
00:59:37.591 : :Chapter 15
01:04:46.274 : :Chapter 16
01:07:50.375 : :Chapter 17
01:13:01.143 : :Chapter 18
01:20:21.417 : :Chapter 19
01:25:29.766 : :Chapter 20

Download Links

CONTRASEÑA PARA DESCOMPRIMIR

APORTES NUEVOS

cinemaniahdd.com

APORTES VIEJOS

CinemaniaHD.org

COMPRA O RENUEVA TU PREMIUM DE UPLOADED DESDE EL SIGUIENTE LINK:

http://ul.to/ref/9821430

SI GUSTAS PUEDES SEGUIRNOS EN LAS REDES SOCIALES

Facebook

Twitter

Post Relacionados